<?xml version="1.0" standalone="no"?>
<!DOCTYPE svg PUBLIC "-//W3C//DTD SVG 1.1//EN" "http://www.w3.org/Graphics/SVG/1.1/DTD/svg11.dtd" >
<svg xmlns="http://www.w3.org/2000/svg">
<metadata>
<json>
<![CDATA[
{
	"fontFamily": "icons",
	"majorVersion": 1,
	"minorVersion": 1,
	"copyright": "A Produle Systems",
	"description": "Font generated by IcoMoon.",
	"version": "Version 1.1",
	"fontId": "icons",
	"psName": "icons",
	"subFamily": "Regular",
	"fullName": "icons"
}
]]>
</json>
</metadata>
<defs>
<font id="icons" horiz-adv-x="1024">
<font-face units-per-em="1024" ascent="960" descent="-64" />
<missing-glyph horiz-adv-x="1024" />
<glyph unicode="&#x20;" horiz-adv-x="512" d="" />
<glyph unicode="&#xe600;" glyph-name="uniE600" data-tags="uniE600" d="M862.781 585.953c0.205 3.994 0.307 7.864 0.307 11.633 0 148.5-120.791 269.312-269.292 269.312-102.584 0-196.28-59.31-241.254-150.159-23.245 15.38-50.483 23.654-78.991 23.654-75.858 0-138.158-59.126-143.217-133.693-77.476-28.221-130.335-102.564-130.335-185.958 0-109.179 88.842-198.021 198.042-198.021h293.478v216.801l-67.441-67.441c-8.008-8.008-20.951-8.008-28.959 0s-8.008 20.951 0 28.959l116.879 116.879 116.879-116.879c8.008-8.008 8.008-20.951 0-28.959-3.994-3.994-9.236-6.001-14.479-6.001s-10.486 2.007-14.479 6.001l-67.441 67.441v-216.801h309.207c100.536 0 182.313 81.777 182.313 182.272 0 93.082-70.103 170.107-161.219 180.961zM491.52 79.36c0-11.325 9.175-20.48 20.48-20.48s20.48 9.155 20.48 20.48v143.36h-40.96v-143.36z" />
<glyph unicode="&#xe601;" glyph-name="uniE601" data-tags="uniE601" d="M512 939.52c-282.317 0-512-203.96-512-454.656 0-121.139 52.695-234.353 148.726-320.205-17.736-52.449-63.263-88.474-97.157-115.302-31.048-24.556-53.473-42.312-46.776-67.441l2.191-8.212 7.373-4.26c18.575-10.67 43.438-16.077 73.912-16.077 101.294 0 247.050 58.184 311.194 86.139 36.475-7.619 72.704-11.346 110.49-11.346 282.337 0 512 203.96 512 454.656 0 251.843-228.762 456.704-509.952 456.704zM544.768 263.68c0-4.096-2.048-8.192-8.172-8.192h-47.104v2.048c-4.096 0-8.192 2.048-8.192 8.172v274.452c0 4.096 2.048 8.192 8.192 8.192h47.104c4.096 0 8.172-2.048 8.172-8.192v-276.48zM544.768 636.416c0-4.096-2.048-8.192-8.172-8.192h-49.152c-4.096 0-8.192 2.048-8.192 8.192v53.248c0 4.096 2.048 8.192 8.192 8.192h49.152c4.096 0 8.172-2.048 8.172-8.192v-53.248z" />
<glyph unicode="&#xe602;" glyph-name="uniE602" data-tags="uniE602" d="M512 878.080c-259.727 0-471.040-183.747-471.040-409.6 0-126.71 68.28-247.091 183.316-324.383-2.724-21.565-13.619-73.748-56.709-134.861l-22.63-32.092 40.489-0.184c111.247 0 186.429 68.198 211.128 94.29 37.56-8.212 76.349-12.37 115.446-12.37 259.727 0 471.040 183.747 471.040 409.6s-211.313 409.6-471.040 409.6z" />
<glyph unicode="&#xe603;" glyph-name="uniE603" data-tags="uniE603" d="M862.781 504.177c0.205 3.932 0.307 7.741 0.307 11.489 0 148.5-120.812 269.292-269.312 269.292-102.584 0-196.26-59.31-241.254-150.139-23.224 15.38-50.463 23.634-78.991 23.634-75.837 0-138.138-59.126-143.217-133.693-77.455-28.18-130.314-102.523-130.314-185.938 0-109.179 88.842-198.021 198.042-198.021h643.645c100.516 0 182.313 81.777 182.313 182.292 0 93.389-70.595 170.598-161.219 181.084z" />
<glyph unicode="&#xe604;" glyph-name="uniE604" data-tags="uniE604" d="M982.999 542.679l0.041 304.681c0 39.526-32.154 71.68-71.68 71.68h-317.542c-26.501 0-51.794-1.516-70.021-19.722l-465.469-465.428c-11.203-11.162-17.367-26.071-17.367-41.882 0-15.79 6.164-30.679 17.347-41.882l355.82-355.799c11.182-11.182 26.051-17.347 41.861-17.347s30.7 6.164 41.861 17.347l465.449 465.49c19.988 19.907 19.845 48.579 19.722 76.288l-0.020 6.574zM653.312 417.28l-28.672 28.672c18.432 26.624 22.528 59.392-8.192 90.112-43.008 43.008-77.824 18.432-90.092 6.144-28.672-28.672-10.24-63.488 14.336-102.4 28.652-47.104 53.248-100.352 6.144-147.456-55.296-57.364-122.88-22.548-149.504-4.096l-26.624-26.624-28.692 28.672 28.672 28.672c-20.48 28.652-49.152 86.016 8.192 153.6l28.672-28.672c-18.432-18.412-40.96-65.536 4.096-110.572 45.056-45.056 75.776-34.816 100.352-10.24 69.632 69.612-112.64 157.696-20.48 249.856 49.152 49.152 110.592 26.624 137.216 6.144l32.768 32.768 28.672-28.672-32.768-32.788c34.816-49.152 18.432-92.16-4.096-133.12zM798.72 673.28c-33.915 0-61.44 27.505-61.44 61.44s27.525 61.44 61.44 61.44 61.44-27.505 61.44-61.44-27.525-61.44-61.44-61.44z" />
<glyph unicode="&#xe605;" glyph-name="uniE605" data-tags="uniE605" d="M982.999 542.679l0.041 304.681c0 39.526-32.154 71.68-71.68 71.68h-317.542c-26.501 0-51.794-1.516-70.021-19.722l-465.469-465.449c-11.203-11.162-17.367-26.051-17.367-41.861s6.164-30.7 17.347-41.882l355.82-355.799c11.182-11.182 26.051-17.347 41.861-17.347s30.7 6.164 41.861 17.347l465.449 465.469c19.968 19.907 19.845 48.579 19.722 76.288l-0.020 6.595zM798.72 673.28c-33.915 0-61.44 27.505-61.44 61.44s27.525 61.44 61.44 61.44 61.44-27.505 61.44-61.44-27.525-61.44-61.44-61.44z" />
<glyph unicode="&#xe606;" glyph-name="uniE606" data-tags="uniE606" d="M512 960c-282.317 0-512-229.683-512-512s229.683-512 512-512 512 229.683 512 512-229.683 512-512 512zM901.12 574.976c4.096-14.336 8.192-26.624 10.24-40.96l-38.912-8.192c-2.048 12.288-6.144 24.576-10.24 36.864l38.912 12.288zM843.776 691.712c8.172-12.288 16.384-22.528 22.528-36.864l-34.816-20.48c-6.144 10.24-14.316 22.528-20.48 32.768l32.768 24.576zM636.928 837.12c14.336-4.096 26.644-10.24 40.96-14.336l-16.384-36.864c-12.288 6.144-24.576 10.24-36.864 14.336l12.288 36.864zM512 857.6c14.336 0 28.672 0 40.96-2.048l-4.096-40.96c-12.288 2.048-24.576 2.048-36.864 2.048l-2.048 40.96h2.048zM425.984 847.36l8.192-40.96c-12.288 0-24.576-4.096-36.864-8.192l-12.288 38.912c14.336 4.096 26.624 8.192 40.96 10.24zM137.216 613.888l36.864-16.384c-4.096-12.288-8.192-24.576-12.288-36.864l-38.912 12.288c4.096 14.336 10.24 26.624 14.336 40.96zM104.448 491.008l40.96-4.096c-2.048-14.336-2.048-26.624-2.048-38.912h-40.96c0 14.336 0 28.672 2.048 43.008zM122.88 321.024c-4.096 14.336-8.192 26.624-10.24 40.96l40.96 8.192c2.048-12.288 6.144-24.576 10.24-36.864l-40.96-12.288zM180.224 206.336c-8.192 12.288-16.384 24.576-22.528 36.864l34.816 20.48c6.144-10.24 14.336-22.528 20.48-32.768l-32.768-24.576zM212.992 663.040l-32.768 24.576c8.192 12.288 16.384 22.528 26.624 32.768l30.72-26.624c-8.192-10.24-16.384-18.432-24.576-30.72zM272.384 116.224c-12.288 8.192-22.528 16.384-32.768 26.624l26.624 30.72c10.24-8.172 20.48-16.384 30.72-24.556l-24.576-32.788zM294.912 744.96l-24.576 32.768c12.288 8.192 22.528 16.384 36.864 22.528l20.48-34.816c-12.288-6.144-22.528-12.288-32.768-20.48zM385.024 58.88c-14.336 4.096-26.624 10.24-40.96 14.336l16.384 36.864c12.288-6.144 24.576-10.24 36.864-14.336l-12.288-36.864zM512 38.4c-14.336 0-28.672 0-43.008 2.048l4.096 40.96c12.288-2.048 26.624-2.048 38.912-2.048v-40.96zM598.016 46.592l-8.192 40.96c12.308 2.048 24.576 6.144 36.864 10.24l12.288-38.912c-14.336-4.096-26.624-8.192-40.96-12.288zM661.361 474.481l-128.881 128.881v-380.641h-40.96v380.641l-128.881-128.881-28.959 28.959 178.319 178.319 178.319-178.319-28.959-28.959zM716.8 93.696l-20.48 34.816c10.24 6.144 22.528 14.316 32.768 20.48l24.576-32.788c-12.288-8.172-24.576-16.364-36.864-22.508zM757.76 722.432c-10.24 8.192-20.48 16.384-30.72 24.576l24.576 32.768c12.288-8.192 22.528-16.384 32.768-26.624l-26.624-30.72zM817.152 173.568l-30.72 28.672c8.172 10.24 16.384 20.48 24.556 30.72l32.788-24.576c-8.192-12.288-18.432-24.576-26.624-34.816zM886.784 282.112l-36.864 16.384c6.144 12.288 10.24 24.576 14.336 36.864l38.892-12.288c-6.124-14.336-10.22-28.672-16.364-40.96zM878.592 409.088c2.048 12.288 2.048 26.624 2.048 38.912l30.72 2.048h10.24c0-16.384 0-30.72-2.048-45.056l-40.96 4.096z" />
<glyph unicode="&#xe607;" glyph-name="uniE607" data-tags="uniE607" d="M921.559 39.629c-7.434 124.211-106.66 163.41-186.388 194.888-47.923 18.924-89.477 35.348-101.99 64.143-1.987 23.245-1.823 41.288-1.638 62.034l0.061 9.789c18.371 18.801 37.294 58.716 44.175 94.249 14.418 7.455 32.338 25.784 37.724 70.738 2.499 20.931-3.154 37.151-11.244 48.435-40.714-6.164-105.247-13.025-190.157-13.025-85.463 0-149.668 6.799-190.3 12.923-8.11-11.284-13.804-27.443-11.284-48.394 5.427-45.158 22.979-63.57 37.765-70.963 7.025-35.43 26.378-75.346 45.22-94.126l0.041-9.585c0.184-20.787 0.348-38.83-1.638-62.095-12.534-28.795-54.252-45.22-102.38-64.143-80.015-31.478-179.63-70.656-187.085-194.888l-1.311-21.688h821.74l-1.311 21.709zM716.616 734.843c-3.154 78.459-45.732 158.392-122.696 179.589v-138.752c0-11.305-9.155-20.48-20.48-20.48s-20.48 9.175-20.48 20.48v159.232c0 13.885-10.875 25.088-23.409 25.088h-35.123c-12.513 0-23.388-11.203-23.388-25.088v-159.232c0-11.305-9.175-20.48-20.48-20.48s-20.48 9.175-20.48 20.48v138.752c-77.025-21.217-119.603-101.253-122.696-179.794-21.012-7.496-41.144-24.474-41.144-81.838v-15.995l15.503-3.871c3.441-0.86 86.016-21.094 230.359-21.094 144.364 0 226.714 20.234 230.154 21.094l15.503 3.891v15.974c0 57.774-20.091 74.732-41.144 82.043z" />
<glyph unicode="&#xe608;" glyph-name="uniE608" data-tags="uniE608" d="M512 38.4v0c-14.336 0-28.672 0-43.008 2.048l4.096 40.96c12.288-2.048 26.624-2.048 38.912-2.048v-40.96zM598.016 46.592l-8.192 40.96c12.288 2.048 24.576 6.144 36.864 10.24l12.288-38.912c-14.336-4.096-26.624-8.192-40.96-12.288zM385.024 58.88c-14.336 4.096-26.624 10.24-40.96 14.336l16.384 36.864c12.288-6.144 24.576-10.24 36.864-14.336l-12.288-36.864zM716.8 93.696l-20.48 34.816c10.24 6.144 22.528 14.336 32.768 20.48l24.576-32.768c-12.288-8.192-24.576-16.384-36.864-22.528zM272.384 116.224c-12.288 8.192-22.528 16.384-32.768 26.624l26.624 30.72c10.24-8.192 20.48-16.384 30.72-24.576l-24.576-32.768zM817.152 173.568l-30.72 28.672c8.192 10.24 16.384 20.48 24.576 30.72l32.768-24.576c-8.192-12.288-18.432-24.576-26.624-34.816zM180.224 206.336c-8.192 12.288-16.384 24.576-22.528 36.864l34.816 20.48c6.144-10.24 14.336-22.528 20.48-32.768l-32.768-24.576zM886.784 282.112l-36.864 16.384c6.144 12.288 10.24 24.576 14.336 36.864l38.912-12.288c-6.144-14.336-10.24-28.672-16.384-40.96zM122.88 321.024c-4.096 14.336-8.192 26.624-10.24 40.96l40.96 8.192c2.048-12.288 6.144-24.576 10.24-36.864l-40.96-12.288zM919.552 404.992l-40.96 4.096c2.048 12.288 2.048 26.624 2.048 38.912l30.72 2.048h10.24c0-16.384 0-30.72-2.048-45.056zM102.4 448v0c0 14.336 0 28.672 2.048 43.008l40.96-4.096c-2.048-14.336-2.048-26.624-2.048-38.912h-40.96zM872.448 525.824c-2.048 12.288-6.144 24.576-10.24 36.864l38.912 12.288c4.096-14.336 8.192-26.624 10.24-40.96l-38.912-8.192zM161.792 560.64l-38.912 12.288c4.096 14.336 10.24 26.624 14.336 40.96l36.864-16.384c-4.096-12.288-8.192-24.576-12.288-36.864zM831.488 634.368c-6.144 10.24-14.336 22.528-20.48 32.768l32.768 24.576c8.192-12.288 16.384-22.528 22.528-36.864l-34.816-20.48zM212.992 663.040l-32.768 24.576c8.192 12.288 16.384 22.528 26.624 32.768l30.72-26.624c-8.192-10.24-16.384-18.432-24.576-30.72zM757.76 722.432c-10.24 8.192-20.48 16.384-30.72 24.576l24.576 32.768c12.288-8.192 22.528-16.384 32.768-26.624l-26.624-30.72zM294.912 744.96l-24.576 32.768c12.288 8.192 22.528 16.384 36.864 22.528l20.48-34.816c-12.288-6.144-22.528-12.288-32.768-20.48zM661.504 785.92c-12.288 6.144-24.576 10.24-36.864 14.336l12.288 36.864c14.336-4.096 26.624-10.24 40.96-14.336l-16.384-36.864zM397.312 798.208l-12.288 38.912c14.336 4.096 26.624 8.192 40.96 10.24l8.192-40.96c-12.288 0-24.576-4.096-36.864-8.192zM548.864 814.592c-12.288 2.048-24.576 2.048-36.864 2.048l-2.048 40.96h2.048c14.336 0 28.672 0 40.96-2.048l-4.096-40.96z" />
<glyph unicode="&#xe609;" glyph-name="uniE609" data-tags="uniE609" d="M634.88 368.128c0 67.584-55.296 86.016-108.544 98.304-43.008 10.24-81.92 20.48-81.92 63.488 0 18.432 8.192 59.392 69.632 59.392 43.008 0 63.488-26.624 69.632-59.392h40.96c-12.288 45.056-32.768 86.016-92.16 96.256v47.104h-40.96v-45.056c-32.768-4.096-92.16-32.768-92.16-102.4 0-131.072 190.464-63.488 190.464-161.792 0-32.768-14.336-63.488-77.824-63.488s-81.92 49.152-81.92 75.776h-40.96c6.144-88.064 67.584-108.544 102.4-114.688v-38.912h40.96v38.912c30.72 2.048 102.4 24.576 102.4 106.496z" />
<glyph unicode="&#xe60a;" glyph-name="uniE60A" data-tags="uniE60A" d="M633.508 293.827c-2.99 33.014-1.843 56.054-1.843 86.221 14.95 7.844 41.738 57.856 46.264 100.106 11.756 0.963 30.29 12.431 35.717 57.713 2.929 24.31-8.704 37.99-15.79 42.291 19.128 57.528 58.86 235.5-73.482 253.891-13.619 23.921-48.497 36.024-93.819 36.024-181.33-3.338-203.203-136.929-163.451-289.915-7.066-4.301-18.698-17.981-15.79-42.291 5.448-45.281 23.962-56.75 35.717-57.713 4.506-42.23 32.358-92.262 47.35-100.106 0-30.167 1.126-53.207-1.864-86.221-35.881-96.461-277.975-69.386-289.157-255.427h778.24c-11.162 186.040-252.211 158.966-288.092 255.427z" />
<glyph unicode="&#xe60b;" glyph-name="uniE60B" data-tags="uniE60B" d="M613.028 232.387c-0.532 5.878-0.922 15.319-1.229 25.108 88.986 9.114 151.409 30.454 151.409 55.316-0.246 0.041-0.225 1.024-0.225 1.434-66.519 59.945 57.672 485.949-173.527 477.307-14.52 12.288-39.936 23.204-76.39 23.204-313.16-23.695-174.694-425.984-246.047-501.924-0.041-0.020-0.102-0.020-0.143-0.020 0-0.041 0.020-0.082 0.020-0.123 0-0.020-0.020-0.041-0.020-0.041s0.020 0 0.041-0.020c0.287-24.351 60.6-45.302 147.005-54.641-0.246-5.939-0.758-13.292-1.884-25.6-26.255-70.595-162.98-75.018-238.776-145.244 41.431-36.168 185.795-133.284 340.664-133.284s283.484 73.503 334.766 135.332c-75.96 68.239-209.674 73.298-235.663 143.196z" />
<glyph unicode="&#xe60c;" glyph-name="uniE60C" data-tags="uniE60C" d="M613.028 232.387c-2.99 33.014-1.843 56.054-1.843 86.221 14.95 7.844 41.738 57.856 46.264 100.106 11.756 0.963 30.29 12.431 35.717 57.713 2.929 24.31-8.704 37.99-15.79 42.291 19.128 57.528 58.86 235.5-73.482 253.891-13.619 23.921-48.497 36.024-93.819 36.024-181.33-3.338-203.203-136.929-163.451-289.915-7.066-4.301-18.698-17.981-15.79-42.291 5.448-45.281 23.962-56.75 35.717-57.713 4.506-42.23 32.358-92.262 47.35-100.106 0-30.167 1.126-53.207-1.864-86.221-25.825-69.427-158.454-74.854-234.967-141.804 79.995-80.548 209.633-138.158 346.44-138.158s297.615 108.012 324.383 137.482c-76.042 67.564-208.978 72.806-234.865 142.479z" />
<glyph unicode="&#xe60d;" glyph-name="uniE60D" data-tags="uniE60D" d="M0 192h1024v-102.4h-1024v102.4zM0 806.4v-102.4h1024v102.4h-1024zM0 396.8h1024v102.4h-1024v-102.4z" />
<glyph unicode="&#xe60e;" glyph-name="uniE60E" data-tags="uniE60E" d="M532.48 448h122.88v-40.96h-122.88v-122.88h-40.96v122.88h-122.88v40.96h122.88v122.88h40.96v-122.88zM745.452 326.021l74.772-349.041-308.224 179.057-308.244-179.057 74.793 349.041-267.551 240.333 356.045 34.017 144.957 328.438 144.978-328.438 356.024-34.017-267.551-240.333zM700.416 340.623l215.777 193.823-287.007 27.423-117.187 265.482-117.187-265.482-287.027-27.423 215.777-193.823-60.375-281.764 248.812 144.548 248.791-144.548-60.375 281.764z" />
<glyph unicode="&#xe60f;" glyph-name="uniE60F" data-tags="uniE60F" d="M511.98 775.68c-180.675 0-327.68-147.005-327.68-327.68 0-3.809-1.331-7.188-3.133-10.24 1.823-3.052 3.133-6.431 3.133-10.24 0-12.759 0.758-25.743 2.232-38.564 1.311-11.244-6.738-21.402-17.981-22.692-0.799-0.102-1.597-0.143-2.396-0.143-10.24 0-19.108 7.68-20.316 18.125-1.638 14.377-2.499 28.938-2.499 43.274 0 3.809 1.331 7.188 3.133 10.24-1.823 3.052-3.133 6.431-3.133 10.24 0 203.264 165.376 368.64 368.64 368.64 104.202 0 204.001-44.38 273.797-121.774 4.444-4.915 8.765-9.974 12.943-15.155v136.929c0 11.305 9.155 20.48 20.48 20.48s20.48-9.175 20.48-20.48v-204.8l-204.8 0.020c-11.325 0-20.48 9.175-20.48 20.48s9.175 20.48 20.48 20.48h132.915c-4.014 4.997-8.151 9.871-12.411 14.623-62.054 68.772-150.794 108.237-243.405 108.237zM208.2 304.415c-4.26 10.486-16.179 15.544-26.665 11.284-10.486-4.239-15.544-16.2-11.284-26.685 12.329-30.372 28.692-59.044 48.681-85.176 4.035-5.284 10.117-8.049 16.282-8.049 4.342 0 8.724 1.372 12.431 4.219 8.97 6.861 10.691 19.722 3.83 28.692-17.777 23.265-32.338 48.722-43.274 75.715zM388.874 123.74c-26.972 10.936-52.47 25.498-75.715 43.274-9.032 6.861-21.852 5.12-28.713-3.85-6.861-8.991-5.14-21.832 3.83-28.713 26.173-19.988 54.845-36.372 85.217-48.681 2.519-1.024 5.12-1.495 7.68-1.495 8.11 0 15.77 4.813 18.985 12.78 4.26 10.506-0.799 22.446-11.284 26.685zM860.14 448c-11.325 0-20.48-9.155-20.48-20.48 0-6.492-0.184-12.943-0.532-19.333-0.635-11.284 8.008-20.951 19.292-21.586 0.389-0.020 0.778-0.041 1.167-0.041 10.772 0 19.825 8.438 20.419 19.333 0.41 7.168 0.614 14.356 0.614 21.627 0 11.325-9.155 20.48-20.48 20.48zM848.691 336.323c-10.691 3.564-22.323-2.171-25.928-12.923-4.567-13.578-10.076-27.034-16.425-39.977-4.956-10.138-0.758-22.426 9.4-27.402 2.908-1.413 5.96-2.089 8.97-2.089 7.578 0 14.868 4.219 18.412 11.489 7.127 14.541 13.332 29.676 18.452 44.974 3.645 10.732-2.13 22.323-12.882 25.928zM758.477 211.62c-9.482-10.813-19.763-21.094-30.577-30.577-8.499-7.455-9.359-20.398-1.905-28.897 4.035-4.628 9.728-6.984 15.401-6.984 4.792 0 9.626 1.679 13.496 5.079 12.165 10.67 23.716 22.221 34.386 34.386 7.455 8.499 6.595 21.443-1.905 28.897-8.458 7.414-21.443 6.636-28.897-1.905zM656.097 133.14c-12.943-6.369-26.378-11.858-39.956-16.404-10.711-3.564-16.527-15.155-12.943-25.907 2.867-8.581 10.834-14.008 19.415-14.008 2.13 0 4.321 0.348 6.472 1.065 15.319 5.1 30.454 11.325 45.036 18.473 10.158 4.977 14.336 17.265 9.359 27.402-4.956 10.179-17.224 14.356-27.382 9.38zM531.21 100.393c-6.369-0.389-12.8-0.553-19.231-0.553-12.923 0-25.887 0.758-38.523 2.232-11.121 1.331-21.402-6.697-22.733-17.94-1.311-11.244 6.717-21.422 17.94-22.733 14.234-1.679 28.795-2.519 43.315-2.519 7.27 0 14.541 0.205 21.75 0.635 11.305 0.696 19.886 10.424 19.19 21.709s-10.527 19.661-21.709 19.169z" />
<glyph unicode="&#xe610;" glyph-name="uniE610" data-tags="uniE610" d="M573.256 84.132c1.311-11.244-6.697-21.422-17.94-22.733-14.172-1.679-28.754-2.519-43.295-2.519-7.27 0-14.541 0.205-21.75 0.635-11.284 0.696-19.866 10.424-19.169 21.709 0.696 11.305 10.363 19.702 21.709 19.19 6.369-0.41 12.78-0.573 19.21-0.573 12.943 0 25.907 0.758 38.502 2.232 11.264 1.372 21.422-6.697 22.733-17.94zM880.66 448c0 203.264-165.376 368.64-368.64 368.64-104.202 0-204.001-44.38-273.818-121.795-4.444-4.915-8.745-9.974-12.923-15.135v136.929c0 11.305-9.175 20.48-20.48 20.48s-20.48-9.175-20.48-20.48v-204.8l204.8 0.020c11.305 0 20.48 9.175 20.48 20.48s-9.175 20.48-20.48 20.48h-132.915c4.014 4.997 8.151 9.871 12.431 14.602 62.034 68.792 150.753 108.257 243.384 108.257 180.675 0 327.68-147.005 327.68-327.68 0-3.809 1.331-7.188 3.133-10.24-1.823-3.052-3.133-6.431-3.133-10.24 0-12.759-0.758-25.743-2.232-38.564-1.29-11.244 6.738-21.402 17.981-22.692 0.799-0.102 1.597-0.143 2.376-0.143 10.26 0 19.128 7.68 20.316 18.125 1.679 14.377 2.519 28.938 2.519 43.274 0 3.809-1.331 7.188-3.133 10.24 1.802 3.052 3.133 6.431 3.133 10.24zM710.82 167.014c-23.286-17.777-48.763-32.338-75.715-43.274-10.486-4.239-15.524-16.2-11.284-26.685 3.215-7.967 10.895-12.78 18.985-12.78 2.56 0 5.181 0.471 7.7 1.495 30.331 12.308 59.003 28.672 85.197 48.681 8.97 6.881 10.691 19.722 3.85 28.713-6.902 8.97-19.722 10.65-28.733 3.85zM842.445 315.699c-10.465 4.239-22.426-0.799-26.665-11.305-10.916-26.952-25.457-52.429-43.233-75.674-6.881-8.97-5.161-21.832 3.83-28.692 3.727-2.847 8.090-4.219 12.411-4.219 6.164 0 12.268 2.765 16.282 8.049 20.029 26.173 36.393 54.845 48.681 85.197 4.239 10.465-0.84 22.405-11.305 26.644zM165.622 386.601c11.284 0.635 19.927 10.322 19.272 21.627-0.369 6.369-0.553 12.82-0.553 19.292 0 11.325-9.175 20.48-20.48 20.48s-20.48-9.155-20.48-20.48c0-7.27 0.205-14.479 0.614-21.668 0.635-10.875 9.667-19.292 20.439-19.292 0.389 0 0.799 0.020 1.188 0.041zM201.216 323.4c-3.604 10.732-15.176 16.527-25.928 12.923-10.711-3.604-16.507-15.196-12.902-25.928 5.14-15.319 11.346-30.454 18.473-44.995 3.564-7.25 10.834-11.469 18.412-11.469 3.011 0 6.103 0.655 8.991 2.109 10.158 4.977 14.356 17.244 9.38 27.402-6.349 12.923-11.858 26.358-16.425 39.956zM407.859 116.736c-13.599 4.547-27.034 10.056-39.956 16.404-10.158 4.956-22.426 0.799-27.402-9.359-4.997-10.138-0.799-22.426 9.359-27.402 14.561-7.168 29.716-13.373 45.056-18.473 2.15-0.717 4.321-1.065 6.472-1.065 8.581 0 16.568 5.427 19.436 14.008 3.564 10.711-2.253 22.303-12.964 25.887zM265.503 211.62c-7.475 8.499-20.378 9.359-28.897 1.905s-9.359-20.398-1.905-28.897c10.691-12.206 22.262-23.757 34.386-34.386 3.871-3.4 8.684-5.079 13.476-5.079 5.693 0 11.366 2.355 15.421 6.984 7.455 8.52 6.595 21.463-1.925 28.897-10.752 9.441-21.053 19.743-30.556 30.577z" />
<glyph unicode="&#xe611;" glyph-name="uniE611" data-tags="uniE611" d="M711.823 659.231l-233.349 233.329c-8.008 8.008-20.951 8.008-28.959 0l-14.561-14.561c-192.963-3.072-312.3-62.771-312.3-157.573 0-20.808 6.451-63.488 51.507-103.219l-88.33-88.33c-28.938-28.938-44.872-67.441-44.872-108.38 0-40.919 15.933-79.421 44.892-108.38l228.864-228.844c28.938-28.938 67.42-44.872 108.36-44.872 40.96 0 79.462 15.954 108.401 44.913l314.409 314.429c14.725-9.605 49.582-47.002 49.582-185.61 0-73.052 22.815-120.259 58.143-120.259 16.077 0 38.4 10.342 53.432 59.556 11.264 36.823 16.957 88.76 16.957 154.337 0 275.292-266.486 343.757-312.177 353.464zM164.065 720.425c0 61.379 89.395 104.96 227.799 114.483l-188.785-188.785c-24.453 20.009-39.014 44.544-39.014 74.301zM502.518 112.271c-21.217-21.217-49.439-32.911-79.442-32.911s-58.184 11.674-79.38 32.87l-228.884 228.844c-21.217 21.217-32.891 49.439-32.891 79.421 0 30.003 11.674 58.204 32.891 79.421l92.959 92.959c54.682-32.645 143.974-59.044 289.3-62.73 7.066-12.308 20.193-20.705 35.41-20.705 22.63 0 40.96 18.33 40.96 40.96s-18.33 40.96-40.96 40.96c-14.807 0-27.668-7.926-34.857-19.702-95.068 2.99-194.048 18.493-259.256 51.814l213.729 213.729c6.328 0.492 11.653 3.809 15.114 8.724l384.492-384.471-349.184-349.184zM953.733 133.837c-5.898 6.164-17.306 30.29-17.306 78.295 0 137.585-33.853 192.758-61.256 214.897l19.948 19.948c8.008 8.008 8.008 20.951 0 28.959l-121.569 121.569c21.422-8.602 45.384-20.070 69.222-35.348 93.061-59.617 140.268-145.879 140.268-256.389 0-120.156-20.070-163.43-29.307-171.93z" />
<glyph unicode="&#xe612;" glyph-name="uniE612" data-tags="uniE612" d="M696.32 960v-327.68h327.68v327.68h-327.68zM983.040 673.28h-245.76v245.76h245.76v-245.76zM245.76 878.080h-163.84v-163.84h163.84v163.84zM204.8 755.2h-81.92v81.92h81.92v-81.92zM327.68 960h-327.68v-327.68h327.68v327.68zM286.72 673.28h-245.76v245.76h245.76v-245.76zM942.080 570.88h-122.88v-122.88h81.92v-40.96h-143.36v163.84h-225.28v81.92h81.92v163.84h-81.92v81.92h-122.88v-122.88h81.92v-81.92h-81.92v-122.88h-225.28v-81.92h-81.92v-122.88h122.88v81.92h102.4v-81.92h122.88v163.84h40.96v-81.92h143.36v-81.92h81.92v-40.96h-61.44v-81.92h-40.96v81.92h-122.88v-122.88h81.92v-40.96h-81.92v-122.88h122.88v81.92h81.92v81.92h40.96v-143.36h-81.92v-122.88h122.88v81.92h40.96v-81.92h122.88v122.88h-81.92v184.32h-81.92v40.96h245.76v204.8h-81.92v81.92zM532.48 775.68h40.96v-81.92h-40.96v81.92zM184.32 407.040h-40.96v40.96h40.96v-40.96zM409.6 407.040h-40.96v81.92h-143.36v40.96h184.32v-122.88zM491.52 570.88h-40.96v81.92h40.96v-81.92zM573.44 79.36h-40.96v40.96h40.96v-40.96zM573.44 243.2h-40.96v40.96h40.96v-40.96zM655.36 161.28h-40.96v40.96h40.96v-40.96zM737.28-23.040h-40.96v40.96h40.96v-40.96zM860.16 488.96v40.96h40.96v-40.96h-40.96zM491.52 816.64h-40.96v40.96h40.96v-40.96zM675.84 407.040v81.92h-143.36v40.96h184.32v-122.88h-40.96zM737.28 243.2h-40.96v40.96h40.96v-40.96zM860.16 17.92h40.96v-40.96h-40.96v40.96zM819.2 202.24v-143.36h-40.96v143.36h40.96zM983.040 448v-122.88h-225.28v40.96h184.32v81.92h40.96zM0-64h327.68v327.68h-327.68v-327.68zM40.96 222.72h245.76v-245.76h-245.76v245.76zM942.080 878.080h-163.84v-163.84h163.84v163.84zM901.12 755.2h-81.92v81.92h81.92v-81.92zM81.92 17.92h163.84v163.84h-163.84v-163.84zM122.88 140.8h81.92v-81.92h-81.92v81.92z" />
<glyph unicode="&#xe613;" glyph-name="uniE613" data-tags="uniE613" d="M792.713 453.689l-506.311-506.311-47.468 47.468 458.843 458.843-458.843 458.843 47.468 47.468 506.311-506.311z" />
<glyph unicode="&#xe614;" glyph-name="uniE614" data-tags="uniE614" d="M792.713-5.154l-47.468-47.468-506.311 506.311 506.311 506.311 47.468-47.468-458.843-458.843 458.843-458.843z" />
<glyph unicode="&#xe615;" glyph-name="uniE615" data-tags="uniE615" d="M909.355 629.483l-760.021-312.96v-391.040h-42.667v1034.517l802.688-330.517z" />
<glyph unicode="&#xe616;" glyph-name="uniE616" data-tags="uniE616" d="M1018.88 441.301c-9.237-10.752-229.269-263.445-506.88-263.445s-497.621 252.693-506.837 263.424c-6.869 8-6.869 19.797 0 27.797 7.723 9.024 163.541 187.883 377.173 245.589-63.232-42.027-104.96-113.835-105.003-195.477v-0.064c0.043-129.6 105.067-234.603 234.667-234.603s234.624 105.003 234.667 234.624v0.043c0 81.643-41.728 153.451-104.981 195.477 213.653-57.728 369.472-236.587 377.195-245.589v0c6.848-8 6.848-19.776 0-27.776zM512 412.523c58.901 0 106.667 47.765 106.667 106.667s-47.765 106.667-106.667 106.667c-58.901 0-106.667-47.765-106.667-106.667s47.787-106.667 106.667-106.667z" />
<glyph unicode="&#xe617;" glyph-name="uniE617" data-tags="uniE617" d="M860.16 857.6h-204.8v40.96c0 33.874-27.566 61.44-61.44 61.44h-163.84c-33.874 0-61.44-27.566-61.44-61.44v-40.96h-204.8c-11.305 0-20.48-9.175-20.48-20.48s9.175-20.48 20.48-20.48h22.221l73.953-829.747c2.56-28.529 26.788-50.893 55.194-50.893h393.544c28.406 0 52.634 22.364 55.194 50.893l73.994 829.747h22.221c11.325 0 20.48 9.175 20.48 20.48s-9.155 20.48-20.48 20.48zM409.6 58.88c0-11.325-9.175-20.48-20.48-20.48s-20.48 9.155-20.48 20.48v675.84c0 11.305 9.175 20.48 20.48 20.48s20.48-9.175 20.48-20.48v-675.84zM532.48 58.88c0-11.325-9.175-20.48-20.48-20.48s-20.48 9.155-20.48 20.48v675.84c0 11.305 9.175 20.48 20.48 20.48s20.48-9.175 20.48-20.48v-675.84zM614.4 857.6h-204.8v40.96c0 11.284 9.196 20.48 20.48 20.48h163.84c11.305 0 20.48-9.196 20.48-20.48v-40.96zM655.36 58.88c0-11.325-9.155-20.48-20.48-20.48s-20.48 9.155-20.48 20.48v675.84c0 11.305 9.155 20.48 20.48 20.48s20.48-9.175 20.48-20.48v-675.84z" />
<glyph unicode="&#xe618;" glyph-name="uniE618" data-tags="uniE618" d="M735.808 325.397l97.579-366.379-318.315 205.995-318.336-205.995 97.6 366.4-294.336 239.061 378.645 20.416 136.427 353.771 136.448-353.771 378.624-20.416-294.336-239.083z" />
<glyph unicode="&#xe619;" glyph-name="uniE619" data-tags="uniE619" d="M989.371 960l-634.267-634.267-341.594 170.797c-8.517 4.258-13.778 13.044-13.509 22.589s6.045 18.037 14.782 21.781l974.589 419.1zM389.659 291.103l170.993-341.57c4.16-8.321 12.653-13.534 21.903-13.534 0.245 0 0.489 0 0.71 0 9.52 0.294 17.988 6.069 21.781 14.806l418.978 974.638-634.365-634.341z" />
<glyph unicode="&#xe61a;" glyph-name="uniE61A" data-tags="uniE61A" d="M965.755 663.204c-3.318-10.813-14.787-16.896-25.559-13.619l-88.228 26.952c45.568-68.26 69.632-146.432 69.632-228.536 0-225.853-183.747-409.6-409.6-409.6-14.336 0-28.815 0.758-43.008 2.232l4.239 40.714c12.8-1.311 25.846-1.987 38.769-1.987 203.264 0 368.64 165.376 368.64 368.64 0 77.189-23.613 150.569-68.321 214.036l-13.783-102.072c-1.393-10.281-10.179-17.736-20.275-17.736-0.901 0-1.843 0.061-2.765 0.184-11.223 1.516-19.087 11.837-17.551 23.040l23.716 175.432 170.496-52.101c10.834-3.318 16.916-14.766 13.599-25.58zM248.504 353.628c-11.162 1.393-21.524-6.349-23.040-17.551l-13.804-102.134c-44.114 62.403-68.301 136.786-68.301 214.057 0 203.264 165.376 368.64 368.64 368.64 13.025 0 26.092-0.655 38.871-1.946l4.076 40.755c-14.111 1.434-28.57 2.15-42.947 2.15-225.853 0-409.6-183.747-409.6-409.6 0-82.043 24.617-161.137 69.571-228.536l-88.166 26.931c-10.711 3.359-22.241-2.785-25.58-13.599-3.297-10.813 2.785-22.262 13.619-25.559l170.516-52.122 23.716 175.452c1.495 11.203-6.369 21.524-17.572 23.060zM717.906 802.202c-12.308 7.311-25.19 14.029-38.339 19.968l-16.876-37.315c11.756-5.325 23.306-11.325 34.263-17.859l20.951 35.205zM639.283 837.775c-13.578 4.403-27.628 8.151-41.697 11.1l-8.397-40.1c12.657-2.642 25.231-5.98 37.417-9.953l12.677 38.953zM384.778 58.532c13.66-4.444 27.668-8.192 41.636-11.182l8.52 40.079c-12.554 2.662-25.17 6.042-37.478 10.056l-12.677-38.953zM306.176 93.716c12.39-7.209 25.293-13.824 38.359-19.681l16.732 37.396c-11.756 5.263-23.368 11.203-34.529 17.674l-20.562-35.389z" />
<glyph unicode="&#xe61b;" glyph-name="uniE61B" data-tags="uniE61B" horiz-adv-x="1020" d="M509.98 960c-281.203 0-509.98-228.777-509.98-509.98 0-186.755 101.935-358.394 266.006-447.946 77.272-42.614 167.967-66.073 255.419-66.073 35.903 0 75.681 6.956 118.275 20.705 223.922 58.709 380.262 261.498 380.262 493.314 0 281.203-228.777 509.98-509.98 509.98zM628.276-4.128c-113.603-29.497-239.303-14.361-342.646 41.982-28.926 15.952-55.037 34.271-77.905 54.588 28.253 19.277 62.422 32.72 95.632 45.776 55.853 21.97 108.626 42.736 126.19 89.92l1.204 5.283c2.407 26.641 2.224 47.143 2.040 68.847l-0.102 18.869 0.367 12.138-10.934 5.712c-8.935 6.079-32.782 47.224-36.719 84.045l-1.816 16.789-16.829 1.367c-2.611 0.204-13.137 7.548-16.993 39.554-1.958 16.462 6.038 22.256 6.079 22.276l12.954 7.874-3.815 14.667c-24.765 95.285-20.664 168.314 11.872 211.173 25.356 33.414 69.623 50.937 131.208 52.059 38.289 0 66.603-9.567 75.722-25.56l4.977-8.731 9.934-1.367c27.253-3.794 46.592-15.422 59.076-35.556 31.333-50.427 13.198-143.611-2.448-190.712l-4.304-15.238 13.056-8.608c0.082-0.061 8.078-5.834 6.079-22.296-3.835-32.006-14.361-39.37-16.972-39.554l-16.829-1.346-1.795-16.789c-3.957-37.004-27.090-78.109-35.27-83.841l-10.914-5.712-0.122-31.313c-0.184-21.664-0.367-42.145 2.040-68.725l1.204-5.283c17.543-47.163 70.133-67.929 125.782-89.92 33.149-13.096 67.215-26.539 95.366-45.837-33.271-25.825-104.954-70.724-184.368-96.529zM843.814 120.185c-33.924 25.315-74.886 41.492-111.563 55.975-47.734 18.849-89.124 35.189-101.588 63.87-1.958 23.133-1.795 41.084-1.612 61.748l0.061 9.792c18.298 18.706 37.147 58.464 44.001 93.877 14.361 7.425 32.21 25.683 37.575 70.439 2.693 22.256-3.794 39.37-12.729 50.61 11.852 40.39 36.311 145.344-5.508 212.621-17.523 28.212-44.083 45.98-79.006 52.895-19.257 24.336-56.2 37.596-105.77 37.596-75.090-1.387-130.045-24.336-163.337-68.195-39.432-51.977-46.755-130.759-21.807-234.265-9.2-11.24-15.973-28.579-13.259-51.263 5.385-44.756 23.235-63.034 37.575-70.439 6.956-35.372 26.274-75.253 45.062-94l0.041-9.547c0.184-20.705 0.347-38.677-1.632-61.871-12.484-28.661-54.038-45.001-101.955-63.85-36.841-14.483-78.027-30.68-112.114-56.057-85.554 86.615-135.451 204.543-135.451 329.896 0 258.703 210.479 469.182 469.182 469.182 258.723 0 469.182-210.479 469.182-469.182 0-126.802-50.835-244.158-135.349-329.835z" />
<glyph unicode="&#xe61c;" glyph-name="uniE61C" data-tags="uniE61C" d="M755.384 235.254c-47.555 18.78-88.842 35.103-102.072 63.324 0 0.737-0.020 1.495-0.041 2.273 52.142 6.656 149.565 25.764 149.565 75.469 0 5.775-2.437 11.305-6.717 15.176-16.036 14.52-15.79 84.378-15.565 146.022 0.41 109.691 0.84 234.025-62.525 297.636-25.702 25.784-59.638 38.871-100.925 38.953-20.357 14.275-49.93 22.344-83.825 22.344-0.123 0-0.246 0-0.369 0-231.035-18.125-235.725-233.738-238.838-376.402-1.249-57.016-2.54-115.958-18.883-130.437-4.383-3.891-6.902-9.482-6.902-15.34 0-48.046 64.635-62.771 146.371-73.277-0.123-1.004-0.266-2.068-0.41-3.195-12.636-27.914-56.156-44.749-102.154-62.525-81.224-31.375-182.292-70.41-189.194-195.768-0.307-5.612 1.7-11.121 5.571-15.196s9.257-6.39 14.889-6.39h778.24c5.612 0 10.998 2.314 14.889 6.39 3.85 4.076 5.878 9.585 5.55 15.196-6.84 124.764-106.557 164.127-186.655 195.748zM166.359 58.88c15.176 82.043 88.965 110.551 160.502 138.199 55.747 21.545 108.421 41.882 126.382 87.818 0.573 1.475 0.983 2.99 1.208 4.588 2.253 15.729 2.253 23.060 2.253 29.491 0 10.383-7.762 19.108-18.063 20.337-91.218 10.854-119.562 22.282-127.037 30.106 20.808 29.798 21.975 83.62 23.409 149.729 3.133 143.114 7.004 321.249 199.516 336.404 30.904 0 52.511-9.093 62.464-17.592 3.871-3.359 8.888-5.1 14.049-4.915 33.587 1.044 58.798-7.557 77.988-26.788 51.364-51.548 50.913-171.889 50.586-268.575-0.266-72.458-0.471-131.707 18.657-163.697-12.206-9.667-51.548-27.382-129.352-34.591-5.775-0.532-11.059-3.523-14.52-8.172-3.482-4.669-4.792-10.568-3.666-16.261 1.618-8.253 1.618-14.807 1.618-20.562 0-2.499 0.451-4.977 1.352-7.311 18.002-47.022 70.758-67.85 126.607-89.907 70.513-27.853 143.258-56.586 158.29-138.301h-732.242z" />
<glyph unicode="&#xe61d;" glyph-name="uniE61D" data-tags="uniE61D" d="M942.039 39.629c-7.434 124.211-106.68 163.41-186.429 194.908-47.903 18.903-89.457 35.328-101.97 64.102-1.966 23.224-1.802 41.247-1.618 61.993l0.061 9.83c18.371 18.78 37.294 58.696 44.175 94.249 14.418 7.455 32.338 25.784 37.724 70.717 2.703 22.344-3.809 39.526-12.78 50.811 11.899 40.55 36.454 145.92-5.53 213.463-17.592 28.324-44.257 46.162-79.319 53.105-19.333 24.433-56.422 37.745-106.189 37.745-75.387-1.393-130.56-24.433-163.983-68.465-39.588-52.183-46.94-131.277-21.893-235.192-9.236-11.284-16.036-28.692-13.312-51.466 5.427-45.158 22.979-63.57 37.765-70.963 7.025-35.451 26.378-75.366 45.22-94.126l0.041-9.585c0.184-20.787 0.348-38.83-1.638-62.116-12.534-28.774-54.252-45.179-102.359-64.102-80.036-31.478-179.63-70.656-187.105-194.908l-1.29-21.709h821.74l-1.311 21.709zM166.461 58.88c15.483 81.265 88.125 109.814 158.556 137.523 56.095 22.057 109.076 42.906 126.71 90.276l1.208 5.304c2.417 26.747 2.232 47.329 2.048 69.12l-0.102 18.944 0.369 12.186-10.977 5.734c-8.97 6.103-32.911 47.411-36.864 84.357l-1.782 16.855-16.896 1.393c-2.621 0.225-13.21 7.598-17.060 39.731-1.966 16.527 6.062 22.344 6.103 22.364l13.005 7.905-3.83 14.725c-24.863 95.662-20.746 168.98 11.919 212.009 25.457 33.546 69.898 51.139 131.727 52.265 38.441 0 66.867-9.605 76.022-25.661l4.997-8.765 9.974-1.393c27.361-3.809 46.776-15.462 59.31-35.676 31.457-50.627 13.251-144.179-2.458-191.468l-4.321-15.299 13.107-8.643c0.082-0.061 8.11-5.857 6.103-22.385-3.85-32.133-14.438-39.526-17.060-39.731l-16.876-1.393-1.802-16.835c-3.973-37.151-27.197-78.418-35.41-84.173l-10.957-5.734-0.123-31.437c-0.184-21.75-0.369-42.312 2.048-68.997l1.208-5.304c17.613-47.35 70.41-68.198 126.28-90.255 70.144-27.709 142.479-56.259 157.921-137.544h-732.099z" />
<glyph unicode="&#xe61e;" glyph-name="uniE61E" data-tags="uniE61E" d="M512 960c-282.317 0-512-229.683-512-512s229.683-512 512-512 512 229.683 512 512-229.683 512-512 512zM208.384 88.269c28.262 19.497 62.218 33.526 95.58 46.838 55.931 22.303 108.79 43.377 126.812 90.542 0.492 1.27 0.86 2.601 1.065 3.932 2.335 13.967 2.335 21.402 2.335 27.955 0 10.383-7.762 19.128-18.063 20.337-91.218 10.854-119.562 22.282-127.037 30.106 20.787 29.778 22.18 83.661 23.9 149.832 3.727 143.626 8.356 322.396 201.073 336.302 30.904 0 52.511-9.093 62.464-17.592 3.891-3.359 8.888-5.1 14.049-4.915 32.911 1.085 57.836-7.25 76.841-25.641 52.531-50.893 52.081-172.216 51.712-269.722-0.266-72.438-0.471-131.707 18.657-163.676-12.206-9.667-51.548-27.382-129.352-34.591-5.775-0.532-11.059-3.523-14.52-8.172-3.482-4.669-4.792-10.568-3.666-16.261 1.638-8.274 1.638-14.828 1.638-20.582 0-2.499 0.451-4.977 1.352-7.311 18.022-47.165 70.861-68.239 126.792-90.563 33.362-13.292 67.318-27.3 95.58-46.817-82.022-69.366-187.986-111.309-303.596-111.309s-221.573 41.943-303.616 111.309zM846.684 116.92c-33.894 25.252-74.793 41.595-111.452 56.218-45.711 18.227-89.006 35.471-102.4 64 0 0.737-0.020 1.495-0.041 2.273 52.142 6.656 149.565 25.764 149.565 75.469 0 5.775-2.437 11.305-6.717 15.176-16.036 14.52-15.79 84.378-15.565 146.002 0.43 110.756 0.881 236.257-64.184 299.295-25.498 24.699-58.86 37.212-99.246 37.294-20.398 14.275-49.951 22.364-83.784 22.364-0.102 0-0.184 0-0.287 0-231.219-16.63-236.831-232.98-240.558-376.156-1.475-57.139-3.011-116.204-19.374-130.683-4.362-3.891-6.881-9.462-6.881-15.34 0-48.005 64.553-62.751 146.207-73.257-0.041-0.348-0.102-0.696-0.164-1.085-12.657-29.327-56.566-46.838-103.014-65.352-36.68-14.623-77.578-30.986-111.452-56.238-84.255 85.156-136.376 202.138-136.376 331.1 0 259.727 211.313 471.040 471.040 471.040 259.748 0 471.040-211.313 471.040-471.040 0-128.963-52.122-245.944-136.356-331.080z" />
<glyph unicode="&#xe61f;" glyph-name="uniE61F" data-tags="uniE61F" d="M811.008 693.76h16.384c0.676 0 1.352 0.020 2.048 0.102 51.671 5.161 92.16 51.016 92.16 104.346 0 52.122-72.417 138.056-86.938 154.747-7.803 8.95-23.122 8.95-30.925 0-14.52-16.691-86.938-102.625-86.938-154.747 0-53.33 40.489-99.185 94.208-104.448zM819.2 907.428c29.245-36.905 61.44-86.241 61.44-109.22 0-26.788-17.449-50.934-40.96-59.965v57.917c0 11.305-9.155 20.48-20.48 20.48s-20.48-9.175-20.48-20.48v-57.876c-23.511 9.032-40.96 33.157-40.96 59.924 0 22.979 32.195 72.294 61.44 109.22zM1003.52-23.040v276.48c0 61.194-43.438 112.906-102.4 128.389v178.811c0 10.629 5.345 21.606 10.527 32.215 5.12 10.527 9.953 20.48 9.953 31.273 0 29.86-19.292 49.152-49.152 49.152-57.651 0-124.621 19.456-125.276 19.64-0.942 0.287-1.925 0.492-2.888 0.614-12.595 1.823-24.658-1.577-33.853-9.544-8.97-7.762-14.111-19.128-14.111-31.191 0-10.813 6.083-21.176 15.258-36.844 10.834-18.514 25.702-43.848 25.702-65.556v-163.84h-143.36v174.080c0 10.629 5.345 21.606 10.527 32.215 5.12 10.527 9.953 20.48 9.953 31.273 0 29.86-19.292 49.152-49.152 49.152-57.651 0-124.621 19.456-125.297 19.64-0.942 0.287-1.905 0.492-2.867 0.614-12.575 1.823-24.658-1.577-33.853-9.544-8.97-7.762-14.111-19.128-14.111-31.191 0-10.813 6.062-21.176 15.258-36.844 10.854-18.514 25.702-43.848 25.702-65.556v-163.84h-143.36v174.080c0 10.629 5.345 21.606 10.506 32.215 5.12 10.527 9.974 20.48 9.974 31.273 0 29.86-19.292 49.152-49.152 49.152-57.651 0-124.621 19.456-125.297 19.64-0.942 0.287-1.905 0.492-2.867 0.614-12.616 1.823-24.678-1.577-33.853-9.544-8.97-7.762-14.111-19.128-14.111-31.191 0-10.813 6.062-21.176 15.258-36.844 10.854-18.514 25.702-43.848 25.702-65.556v-168.53c-59.617-15.114-102.4-66.048-102.4-128.43v-276.48c-11.305 0-20.48-9.155-20.48-20.48s9.175-20.48 20.48-20.48h983.040c11.325 0 20.48 9.155 20.48 20.48s-9.155 20.48-20.48 20.48zM872.448 632.32c7.066 0 8.192-0.553 8.212-7.782-0.328-2.355-3.523-8.929-5.857-13.742-6.185-12.698-14.643-30.085-14.643-50.156v-174.080h-81.92v163.84c0 32.829-18.104 63.713-31.314 86.262-3.154 5.366-7.25 12.37-9.052 16.323 12.861-3.625 76.452-20.664 134.574-20.664zM439.726 636.662c-3.154 5.366-7.25 12.37-9.052 16.323 12.861-3.625 76.472-20.664 134.574-20.664 7.066 0 8.192-0.553 8.212-7.782-0.328-2.355-3.523-8.929-5.857-13.742-6.185-12.698-14.643-30.085-14.643-50.156v-174.080h-81.92v163.84c0 32.829-18.104 63.713-31.314 86.262zM258.048 632.32c7.066 0 8.192-0.553 8.212-7.782-0.307-2.355-3.523-8.929-5.857-13.742-6.185-12.698-14.643-30.085-14.643-50.156v-174.080h-81.92v163.84c0 32.829-18.104 63.713-31.314 86.262-3.154 5.366-7.25 12.37-9.052 16.323 12.861-3.625 76.452-20.664 134.574-20.664zM159.744 345.6h704.512c54.19 0 98.304-41.349 98.304-92.16v-75.162c-11.428-10.445-26.419-16.998-40.96-16.998-33.874 0-61.44 27.566-61.44 61.44 0 11.325-9.155 20.48-20.48 20.48s-20.48-9.155-20.48-20.48c0-33.874-27.566-61.44-61.44-61.44s-61.44 27.566-61.44 61.44c0 11.325-9.155 20.48-20.48 20.48s-20.48-9.155-20.48-20.48c0-33.874-27.566-61.44-61.44-61.44s-61.44 27.566-61.44 61.44c0 11.325-9.155 20.48-20.48 20.48-11.305 0-20.48-9.155-20.48-20.48 0-33.874-27.566-61.44-61.44-61.44s-61.44 27.566-61.44 61.44c0 11.325-9.175 20.48-20.48 20.48s-20.48-9.155-20.48-20.48c0-33.874-27.566-61.44-61.44-61.44s-61.44 27.566-61.44 61.44c0 11.325-9.175 20.48-20.48 20.48s-20.48-9.155-20.48-20.48c0-33.874-27.566-61.44-61.44-61.44-16.241 0-30.679 6.103-40.96 16.466v75.694c0 51.671 43.172 92.16 98.304 92.16zM61.44 128.778c12.534-5.448 26.399-8.458 40.96-8.458 33.464 0 63.222 16.138 81.92 41.021 18.698-24.883 48.456-41.021 81.92-41.021s63.222 16.138 81.92 41.021c18.698-24.883 48.456-41.021 81.92-41.021s63.222 16.138 81.92 41.021c18.698-24.883 48.456-41.021 81.92-41.021s63.222 16.138 81.92 41.021c18.698-24.883 48.456-41.021 81.92-41.021s63.222 16.138 81.92 41.021c18.698-24.883 48.456-41.021 81.92-41.021 13.988 0 27.996 3.236 40.96 9.114v-152.474h-901.12v151.818zM196.608 693.76h16.384c0.676 0 1.352 0.020 2.048 0.102 51.671 5.181 92.16 51.016 92.16 104.346 0 52.122-72.438 138.056-86.958 154.747-7.782 8.95-23.122 8.95-30.904 0-14.5-16.691-86.938-102.625-86.938-154.747 0-53.33 40.489-99.164 94.208-104.448zM204.8 907.428c29.245-36.905 61.44-86.241 61.44-109.22 0-26.788-17.428-50.934-40.96-59.965v57.917c0 11.305-9.175 20.48-20.48 20.48s-20.48-9.175-20.48-20.48v-57.876c-23.511 9.032-40.96 33.157-40.96 59.924 0 22.979 32.195 72.294 61.44 109.22zM503.808 693.76h16.384c0.676 0 1.352 0.020 2.048 0.102 51.671 5.161 92.16 51.016 92.16 104.346 0 52.122-72.417 138.056-86.938 154.747-7.823 8.95-23.122 8.95-30.904 0-14.52-16.691-86.958-102.625-86.958-154.747 0-53.33 40.489-99.164 94.208-104.448zM512 907.428c29.245-36.905 61.44-86.241 61.44-109.22 0-26.788-17.449-50.934-40.96-59.965v57.917c0 11.305-9.155 20.48-20.48 20.48-11.305 0-20.48-9.175-20.48-20.48v-57.876c-23.511 9.032-40.96 33.157-40.96 59.924 0 22.979 32.195 72.294 61.44 109.22z" />
<glyph unicode="&#xe620;" glyph-name="uniE620" data-tags="uniE620" d="M516.096 960c-280.064 0-507.904-203.039-507.904-452.608 0-119.951 52.163-232.571 147.128-318.198-6.164-104.243-89.518-165.376-130.171-195.215-7.557-5.55-13.742-10.117-17.981-13.742-5.775-4.936-8.335-12.677-6.656-20.070s7.311-13.271 14.643-15.258c21.729-5.857 45.609-8.827 70.963-8.827 117.064 0 254.054 63.16 333.353 127.57 34.017-5.898 66.499-8.888 96.645-8.888 280.064 0 507.904 203.039 507.904 452.608s-227.86 452.628-507.924 452.628zM516.096 95.744c-30.433 0-63.611 3.318-98.632 9.871-6.062 1.167-12.349-0.512-17.060-4.547-70.431-60.15-204.534-124.047-314.307-124.047-5.018 0-9.953 0.123-14.807 0.389 48.804 38.093 123.679 108.913 125.317 220.426 0.082 6.042-2.499 11.817-7.066 15.79-90.542 78.459-140.39 182.784-140.39 293.765 0 226.98 209.469 411.648 466.944 411.648s466.944-184.668 466.944-411.648c0-227-209.469-411.648-466.944-411.648zM481.28 339.456h55.296v-59.392h-55.296v59.392zM606.208 669.184c22.528-20.48 34.816-49.152 34.816-81.92 0-20.48-4.096-36.864-12.288-49.152s-24.576-30.72-51.2-55.296c-18.432-18.432-30.72-32.768-36.864-45.056-6.144-10.24-8.192-26.624-8.192-51.2h-51.2c0 26.624 4.096 49.152 10.24 65.536s20.48 34.816 43.008 57.344l22.528 22.528c6.144 6.144 12.288 12.288 16.384 20.48 8.192 12.288 12.288 24.576 12.288 38.912 0 18.432-6.144 34.816-16.384 47.104-10.24 14.336-30.72 20.48-55.296 20.48-32.768 0-55.296-12.288-67.584-34.816-6.144-12.288-10.24-32.768-12.288-55.296h-51.2c2.048 38.912 12.288 71.68 36.864 96.256v0c22.528 24.576 55.296 36.864 96.256 36.864 36.864 0 67.584-10.24 90.112-32.768z" />
<glyph unicode="&#xe621;" glyph-name="uniE621" data-tags="uniE621" d="M921.6 816.64h-819.2c-56.463 0-102.4-45.937-102.4-102.4v-532.48c0-56.463 45.937-102.4 102.4-102.4h819.2c56.463 0 102.4 45.937 102.4 102.4v532.48c0 56.463-45.937 102.4-102.4 102.4zM315.392 284.16h-45.056l-106.496 307.2h40.96l88.064-268.288 96.256 268.288h40.96l-114.688-307.2zM532.48 284.16h-40.96v307.2h40.96v-307.2zM833.536 429.568v0c-14.336-14.336-36.864-22.528-67.584-22.528h-90.112v-122.88h-40.96v307.2h129.044c28.652 0 51.2-8.192 67.584-22.528 14.336-14.336 26.747-41.738 26.747-68.362-0.020-26.624-10.383-56.566-24.719-70.902zM819.835 498.565c0-56.32-68.219-50.565-68.219-50.565h-75.776v102.4h75.776c0 0 68.219 4.485 68.219-51.835z" />
<glyph unicode="&#xe622;" glyph-name="uniE622" data-tags="uniE622" horiz-adv-x="1025" d="M779.51 427.52c-135.516 0-245.76-110.244-245.76-245.76s110.244-245.76 245.76-245.76 245.76 110.244 245.76 245.76-110.244 245.76-245.76 245.76zM779.51-23.040c-112.927 0-204.8 91.873-204.8 204.8s91.873 204.8 204.8 204.8 204.8-91.873 204.8-204.8-91.873-204.8-204.8-204.8zM550.912 336.65l-20.91-35.246c-16.712 9.933-29.614 26.071-37.274 46.694l-1.208 5.304c-2.417 26.706-2.232 47.268-2.048 69.018l0.102 31.396 10.957 5.755c8.212 5.755 31.457 47.002 35.43 84.173l1.802 16.835 16.876 1.393c2.621 0.225 13.21 7.598 17.060 39.752 2.007 16.507-6.021 22.303-6.103 22.364l-13.107 8.643 4.321 15.299c15.729 47.288 33.915 140.82 2.458 191.468-12.554 20.214-31.969 31.887-59.331 35.697l-9.994 1.372-4.977 8.786c-9.155 16.077-37.56 25.661-76.022 25.661-61.829-1.147-106.271-18.739-131.727-52.265-32.645-43.028-36.762-116.347-11.919-212.009l3.83-14.725-13.005-7.905c-0.041-0.020-8.069-5.857-6.103-22.364 3.85-32.133 14.438-39.526 17.060-39.731l16.896-1.393 1.782-16.855c3.953-36.946 27.914-78.275 36.864-84.357l10.957-5.755-0.369-12.165 0.102-18.944c0.184-21.791 0.369-42.373-2.048-69.1l-1.208-5.304c-17.633-47.391-70.615-68.26-126.73-90.317-70.349-27.709-142.971-56.259-158.474-137.503h455.291l13.128-40.96h-513.27l1.311 21.709c7.455 124.211 107.069 163.41 187.085 194.888 48.128 18.924 89.846 35.348 102.38 64.143 1.966 23.265 1.802 41.329 1.638 62.095l-0.041 9.585c-18.821 18.78-38.175 58.696-45.22 94.126-14.807 7.393-32.338 25.805-37.765 70.963-2.724 22.774 4.096 40.182 13.312 51.466-25.047 103.936-17.695 183.030 21.893 235.192 33.423 44.032 88.596 67.072 163.963 68.465 49.766 0 86.835-13.312 106.168-37.745 35.082-6.943 61.747-24.781 79.34-53.125 41.984-67.564 17.428-172.913 5.53-213.463 8.97-11.305 15.483-28.488 12.78-50.811-5.448-45.138-22.958-63.549-37.765-70.943-6.943-35.471-25.805-75.244-44.134-94.003l-0.061-9.81c-0.184-20.787-0.348-38.83 1.638-62.095 4.424-10.691 10.732-18.534 18.862-23.347zM656.63 202.24h245.76v-40.96h-245.76v40.96z" />
<glyph unicode="&#xe623;" glyph-name="uniE623" data-tags="uniE623" horiz-adv-x="1027" d="M793.088 108.298h233.431l-1.29 21.709c-6.369 106.66-90.993 140.063-159.027 166.892-37.765 14.909-73.523 29.020-83.907 51.773-1.577 19.149-1.434 34.12-1.29 51.343l0.041 6.943c16.302 17.039 31.048 50.586 36.864 78.664 12.595 7.107 27.566 23.511 32.133 61.297 2.232 18.903-2.99 33.71-10.506 43.827 10.301 35.635 30.044 123.74-5.448 180.838-15.114 24.33-37.888 39.752-67.768 45.937-17.121 20.767-48.906 32.051-91.259 32.051-48.558-0.901-87.613-12.452-116.183-34.427-12.78 8.131-27.505 13.885-44.134 17.162-19.333 24.433-56.402 37.745-106.168 37.745-75.387-1.393-130.56-24.433-163.963-68.465-39.588-52.183-46.94-131.277-21.893-235.192-9.236-11.284-16.036-28.692-13.312-51.466 5.427-45.158 22.979-63.57 37.765-70.963 7.025-35.451 26.378-75.387 45.22-94.147l0.041-9.585c0.184-20.787 0.348-38.83-1.638-62.116-12.534-28.774-54.252-45.179-102.359-64.102-80.036-31.478-179.63-70.656-187.105-194.908l-1.331-21.668h821.74l-1.29 21.709c-2.191 36.352-12.247 65.434-27.361 89.149zM599.593 565.76c11.899 40.55 36.454 145.92-5.53 213.463-1.556 2.499-3.195 4.936-4.895 7.27 21.135 14.029 50.196 21.463 86.303 22.118 30.74 0 54.19-7.66 61.215-19.988l4.997-8.745 9.974-1.372c22.036-3.072 37.622-12.411 47.657-28.549 25.846-41.595 10.65-119.214-2.417-158.536l-3.215-14.95 11.796-8.847c0.061-0.020 5.284-4.096 3.871-15.811-2.826-23.429-9.994-30.167-11.51-30.659l-16.814-1.434-1.802-16.773c-3.297-30.7-22.118-63.652-28.14-68.321l-10.957-5.755-0.102-28.467c-0.164-18.391-0.328-35.758 1.72-58.409l1.208-5.304c15.36-41.247 60.457-59.044 108.196-77.885 57.057-22.528 115.876-45.711 130.171-109.548h-224.461c-36.127 30.515-82.043 48.66-122.86 64.778-47.903 18.903-89.436 35.328-101.97 64.102-1.966 23.245-1.802 41.288-1.618 62.013l0.061 9.81c18.371 18.78 37.294 58.696 44.175 94.249 14.418 7.455 32.338 25.784 37.724 70.717 2.703 22.344-3.809 39.526-12.78 50.831zM44.851 38.4c15.483 81.265 88.125 109.814 158.556 137.523 56.095 22.057 109.076 42.906 126.71 90.276l1.208 5.304c2.417 26.747 2.232 47.329 2.048 69.12l-0.102 18.944 0.369 12.186-10.977 5.734c-8.97 6.103-32.911 47.411-36.864 84.357l-1.782 16.855-16.896 1.393c-2.621 0.225-13.21 7.598-17.060 39.731-1.966 16.527 6.062 22.344 6.103 22.364l13.005 7.905-3.83 14.725c-24.863 95.662-20.746 168.98 11.919 212.009 25.457 33.546 69.898 51.139 131.727 52.265 38.441 0 66.867-9.605 76.022-25.661l4.997-8.765 9.994-1.393c27.361-3.809 46.776-15.462 59.331-35.676 31.457-50.627 13.251-144.179-2.458-191.468l-4.321-15.299 13.107-8.643c0.082-0.061 8.11-5.857 6.103-22.385-3.85-32.133-14.438-39.526-17.060-39.731l-16.876-1.393-1.802-16.835c-3.973-37.151-27.197-78.418-35.43-84.173l-10.957-5.734-0.102-31.416c-0.184-21.75-0.369-42.312 2.048-69.018l1.208-5.304c17.613-47.35 70.39-68.198 126.28-90.255 39.629-15.647 79.933-31.58 110.326-57.119 2.15-3.871 5.55-6.984 9.646-8.786 18.514-18.35 32.195-41.349 37.97-71.639h-732.16z" />
<glyph unicode="&#xe624;" glyph-name="uniE624" data-tags="uniE624" d="M508.785 120.32c0 0 8.008-20.48 29.45-40.96h-538.235l1.311 21.688c7.475 124.252 107.069 163.43 187.105 194.888 48.108 18.924 89.825 35.348 102.359 64.123 1.966 23.306 1.823 41.37 1.638 62.177l-0.061 9.523c-18.862 18.801-38.257 58.839-45.24 94.351-14.397 7.434-32.317 25.784-37.724 70.738-2.744 22.774 4.076 40.182 13.312 51.466-25.027 103.936-17.674 183.030 21.934 235.233 33.403 44.032 88.576 67.072 163.942 68.444 49.766 0 86.835-13.312 106.168-37.745 35.062-6.922 61.727-24.76 79.319-53.105v0c41.984-67.584 17.428-172.933 5.55-213.463 8.97-11.264 15.462-28.447 12.78-50.79-5.386-44.933-23.306-63.283-37.704-70.738-6.902-35.553-25.805-75.448-44.196-94.228l-0.041-9.83c-0.184-20.746-0.348-38.769 1.618-61.993 1.618-3.727 3.748-7.291 6.41-10.772-6.349-6.308-17.428-24.924-23.388-35.328-9.339 9.38-17.285 20.562-22.344 34.161l-1.208 5.304c-2.417 26.685-2.212 47.247-2.028 68.997l0.102 31.437 10.977 5.755c8.212 5.734 31.437 46.981 35.41 84.132l1.802 16.855 16.896 1.372c2.621 0.184 13.189 7.578 17.060 39.731 1.987 16.527-6.042 22.323-6.124 22.385l-13.066 8.663 4.301 15.278c15.708 47.288 33.915 140.82 2.458 191.468-12.554 20.214-31.969 31.887-59.331 35.697l-9.994 1.372-4.997 8.765c-9.155 16.077-37.581 25.682-76.022 25.682-61.809-1.147-106.25-18.719-131.707-52.265-32.666-43.028-36.782-116.367-11.94-212.050l3.83-14.725-13.005-7.926c-0.041-0.020-8.090-5.857-6.103-22.364 3.871-32.154 14.438-39.526 17.060-39.731l16.896-1.372 1.782-16.876c3.932-36.925 27.873-78.234 36.844-84.316l10.977-5.755-0.369-12.186 0.102-18.883c0.184-21.832 0.369-42.414-2.048-69.181l-1.208-5.304c-17.633-47.391-70.615-68.239-126.71-90.296-70.41-27.689-143.053-56.238-158.536-137.503h463.933zM989.041-57.999l-122.245 122.245c-35.328-28.918-80.425-46.326-129.516-46.326-112.927 0-204.8 91.873-204.8 204.8s91.873 204.8 204.8 204.8 204.8-91.873 204.8-204.8c0-49.091-17.408-94.188-46.326-129.516l122.245-122.245-28.959-28.959zM737.28 58.88c90.337 0 163.84 73.503 163.84 163.84s-73.503 163.84-163.84 163.84-163.84-73.503-163.84-163.84 73.503-163.84 163.84-163.84z" />
<glyph unicode="&#xe625;" glyph-name="uniE625" data-tags="uniE625" horiz-adv-x="1025" d="M1007.37 286.74c-23.9 23.88-62.607 23.88-86.487 0 0 0-3.666-3.666-6.656-6.656l-0.082 0.082-230.359-230.359c-2.54-2.54-4.362-5.693-5.304-9.175l-21.156-78.848c-1.905-7.066 0.123-14.602 5.304-19.784 3.891-3.891 9.114-6.001 14.479-6.001 1.782 0 3.564 0.225 5.304 0.696l78.848 21.156c3.482 0.942 6.636 2.765 9.175 5.304l230.257 230.461c2.99 2.99 6.656 6.656 6.656 6.656 23.88 23.88 23.88 62.587 0.020 86.467zM745.492-3.871l-28.713 28.713 222.618 222.659 28.733-28.713-222.638-222.659zM636.15 38.4c0-11.325-9.155-20.48-20.48-20.48h-615.67l1.311 21.709c7.455 124.211 107.069 163.41 187.085 194.888 48.108 18.924 89.846 35.328 102.359 64.123 1.966 23.286 1.802 41.349 1.638 62.116l-0.041 9.585c-18.821 18.78-38.175 58.696-45.22 94.126-14.807 7.393-32.338 25.805-37.765 70.963-2.724 22.774 4.096 40.182 13.312 51.466-25.047 103.936-17.695 183.009 21.893 235.192 33.423 44.032 88.596 67.072 163.963 68.465 49.766 0 86.835-13.312 106.168-37.745 35.082-6.943 61.747-24.76 79.34-53.105 41.984-67.564 17.428-172.892 5.53-213.463 8.97-11.305 15.483-28.488 12.78-50.811-5.448-45.138-22.958-63.549-37.765-70.943-6.943-35.471-25.805-75.244-44.134-94.003l-0.061-9.81c-0.184-20.746-0.348-38.789 1.618-62.013 12.534-28.795 54.108-45.199 102.011-64.123 35.389-13.988 71.946-28.406 104.202-50.586 9.318-6.41 11.674-19.169 5.284-28.488-6.41-9.318-19.169-11.715-28.488-5.284-28.426 19.538-62.792 33.116-96.031 46.244-55.89 22.057-108.687 42.906-126.3 90.276l-1.208 5.304c-2.417 26.706-2.232 47.268-2.048 69.018l0.102 31.396 10.936 5.755c8.233 5.755 31.457 47.022 35.43 84.173l1.802 16.835 16.876 1.393c2.621 0.225 13.21 7.598 17.060 39.752 2.007 16.507-6.021 22.303-6.103 22.364l-13.107 8.643 4.321 15.299c15.729 47.288 33.915 140.82 2.458 191.468-12.534 20.214-31.969 31.887-59.331 35.676l-9.994 1.393-4.997 8.765c-9.155 16.077-37.56 25.661-76.022 25.661-61.829-1.147-106.271-18.739-131.727-52.265-32.645-43.028-36.762-116.347-11.919-212.009l3.83-14.725-13.005-7.905c-0.041-0.020-8.090-5.857-6.103-22.364 3.871-32.133 14.459-39.526 17.060-39.731l16.896-1.393 1.782-16.855c3.953-36.946 27.914-78.275 36.884-84.357l10.957-5.755-0.369-12.165 0.102-18.944c0.184-21.791 0.369-42.373-2.048-69.12l-1.208-5.304c-17.613-47.391-70.615-68.239-126.71-90.296-70.308-27.73-142.93-56.279-158.433-137.523h570.819c11.325 0 20.48-9.155 20.48-20.48z" />
<glyph unicode="&#xe626;" glyph-name="uniE626" data-tags="uniE626" horiz-adv-x="1025" d="M878.449 271.954l32.215-25.293-138.732-176.579-123.74 109.978 27.218 30.618 91.197-81.080 111.841 142.356zM1025.27 181.76c0-135.516-110.244-245.76-245.76-245.76s-245.76 110.244-245.76 245.76 110.244 245.76 245.76 245.76 245.76-110.244 245.76-245.76zM984.31 181.76c0 112.927-91.873 204.8-204.8 204.8s-204.8-91.873-204.8-204.8 91.873-204.8 204.8-204.8 204.8 91.873 204.8 204.8zM532.050 359.977c-1.987 23.286-1.823 41.329-1.638 62.095l0.061 9.81c18.35 18.76 37.192 58.511 44.134 94.003 14.807 7.393 32.317 25.805 37.765 70.943 2.703 22.344-3.809 39.526-12.78 50.811 11.899 40.55 36.454 145.9-5.53 213.463-17.592 28.344-44.257 46.182-79.34 53.125-19.333 24.433-56.402 37.745-106.168 37.745-75.387-1.393-130.56-24.433-163.963-68.465-39.588-52.183-46.94-131.277-21.893-235.192-9.236-11.284-16.036-28.692-13.312-51.466 5.427-45.158 22.979-63.57 37.765-70.963 7.025-35.43 26.378-75.346 45.22-94.126l0.041-9.585c0.184-20.787 0.348-38.83-1.638-62.095-12.534-28.795-54.252-45.22-102.38-64.143-80.015-31.478-179.63-70.656-187.085-194.888l-1.311-21.688h513.27l-13.128 40.96h-455.291c15.483 81.244 88.105 109.793 158.515 137.503 56.115 22.057 109.097 42.926 126.73 90.317l1.208 5.304c2.417 26.726 2.232 47.309 2.048 69.1l-0.102 18.944 0.369 12.165-10.957 5.755c-8.97 6.083-32.911 47.411-36.864 84.357l-1.782 16.855-16.896 1.393c-2.621 0.225-13.21 7.598-17.060 39.731-1.966 16.527 6.062 22.344 6.103 22.364l13.005 7.905-3.83 14.725c-24.863 95.662-20.746 168.98 11.919 212.009 25.457 33.546 69.898 51.139 131.727 52.265 38.441 0 66.867-9.605 76.022-25.661l4.997-8.765 9.994-1.372c27.361-3.809 46.776-15.483 59.331-35.697 31.457-50.647 13.251-144.179-2.458-191.468l-4.321-15.299 13.107-8.643c0.082-0.061 8.11-5.857 6.103-22.364-3.85-32.154-14.438-39.526-17.060-39.752l-16.876-1.393-1.802-16.835c-3.973-37.151-27.218-78.418-35.43-84.173l-10.957-5.755-0.102-31.396c-0.184-21.75-0.369-42.312 2.048-69.018l1.208-5.304c7.68-20.623 20.562-36.762 37.274-46.694l20.91 35.246c-8.192 4.792-14.5 12.636-18.924 23.306z" />
<glyph unicode="&#xe627;" glyph-name="uniE627" data-tags="uniE627" d="M921.559 39.526c-6.84 124.744-106.557 164.127-186.655 195.748-47.841 18.903-89.334 35.287-102.298 63.816-1.618 27.034-1.802 47.124-1.823 72.049 17.777 18.698 36.598 57.856 44.462 93.43 14.684 6.943 33.116 25.047 37.376 71.844 1.946 23.060-4.403 40.018-13.128 50.954 17.388 55.869 32.645 151.593-4.157 212.439-17.449 28.836-44.073 46.981-79.237 54.006-19.784 24.986-56.975 38.605-106.598 38.605 0 0 0 0-0.020 0-75.448-1.7-130.601-24.781-163.901-68.588-39.444-51.876-46.858-131.42-22.077-236.483-8.458-10.875-16.056-28.262-14.070-51.999 6.042-44.319 22.917-62.525 36.639-69.98 6.922-36.925 27.054-75.96 45.158-94.433 0.041-4.588 0.123-8.991 0.205-13.332 0.369-19.599 0.676-36.639-1.884-58.409-11.223-28.733-52.879-45.261-100.925-64.307-79.913-31.662-179.364-71.086-186.204-195.379l-1.188-21.586h821.514l-1.188 21.606zM632.177 239.841l-38.052-46.141-46.694 58.040 49.705 27.607c7.946-15.892 20.009-28.733 35.041-39.506zM384.922 482.714l-0.266 18.35h-18.616c-2.908 1.126-12.063 10.854-15.892 38.748-1.434 17.183 7.352 24.289 7.332 24.289l12.042 8.028-3.564 14.029c-24.801 97.976-20.705 169.595 12.206 212.89 25.395 33.382 69.878 51.016 131.789 52.429 38.728 0 66.601-9.748 76.534-26.706l4.997-8.581 9.81-1.393c27.279-3.85 46.572-15.688 59.003-36.209 29.655-49.050 14.029-140.841-3.748-190.566l-6.472-16.876 16.241-8.11c1.823-1.29 6.738-8.356 5.509-23.040-2.765-30.31-12.37-38.38-14.418-38.748h-17.756l-2.519-17.592c-5.612-39.424-29.245-79.852-36.966-85.463l-10.342-5.878v-11.899c0-21.217 0.061-38.584 0.696-57.897l-78.52-43.622-79.667 44.257c0.41 12.165 0.266 23.552 0.061 35.205-0.123 7.025-0.266 14.275-0.266 22.057l-1.29 11.51-8.786 6.124c-8.008 5.571-33.485 46.408-37.13 84.664zM425.431 280.146l51.139-28.406-46.694-58.040-38.257 46.367c14.807 10.916 26.481 23.941 33.812 40.079zM303.718 196.813c18.145 7.188 35.799 14.336 52.163 22.221l58.409-70.799c3.871-4.71 9.687-7.434 15.79-7.434 0.041 0 0.082 0 0.123 0 6.144 0.041 11.96 2.847 15.831 7.639l40.223 50.012 15.503-12.595c0 0-36.004-61.665-46.326-126.976h-309.576c15.032 81.347 87.552 110.080 157.86 137.933zM568.689 58.88c-10.199 66.417-46.449 126.976-46.449 126.976l15.503 12.595 40.223-50.012c3.85-4.792 9.687-7.598 15.831-7.639 0.041 0 0.082 0 0.123 0 6.124 0 11.899 2.744 15.79 7.434l58.429 70.82c16.261-7.741 33.751-14.787 51.692-21.873 70.513-27.853 143.258-56.586 158.29-138.301h-309.432z" />
<glyph unicode="&#xe628;" glyph-name="uniE628" data-tags="uniE628" d="M876.524 775.68c-9.216 22.897-32.768 40.96-57.324 40.96h-143.36v6.144c0 63.857-31.007 96.256-92.16 96.256h-143.36c-61.153 0-92.16-32.399-92.16-96.256v-6.144h-143.36c-24.576 0-48.087-18.063-57.324-40.96h-45.076v-122.88h61.44v-593.92c0-45.937 35.983-81.92 81.92-81.92h532.48c45.937 0 81.92 35.983 81.92 81.92v593.92h61.44v122.88h-45.076zM389.12 822.784c0 41.349 12.923 55.296 51.2 55.296h143.36c38.277 0 51.2-13.947 51.2-55.296v-6.144h-245.76v6.144zM819.2 58.88c0-23.368-17.592-40.96-40.96-40.96h-532.48c-23.347 0-40.96 17.592-40.96 40.96v593.92h614.4v-593.92zM880.64 693.76h-737.28v40.96h40.96v20.48c0 9.196 11.284 20.48 20.48 20.48h614.4c9.175 0 20.48-11.284 20.48-20.48v-20.48h40.96v-40.96zM655.36 120.32v430.080c0 11.305 9.155 20.48 20.48 20.48s20.48-9.175 20.48-20.48v-430.080c0-11.325-9.155-20.48-20.48-20.48s-20.48 9.155-20.48 20.48zM327.68 120.32v430.080c0 11.305 9.175 20.48 20.48 20.48s20.48-9.175 20.48-20.48v-430.080c0-11.325-9.175-20.48-20.48-20.48s-20.48 9.155-20.48 20.48zM491.52 120.32v430.080c0 11.305 9.175 20.48 20.48 20.48 11.325 0 20.48-9.175 20.48-20.48v-430.080c0-11.325-9.155-20.48-20.48-20.48-11.305 0-20.48 9.155-20.48 20.48z" />
<glyph unicode="&#xe629;" glyph-name="uniE629" data-tags="uniE629" d="M1024 385.454c0-100.495-81.777-182.272-182.313-182.272h-309.207v216.801l67.441-67.441c3.994-3.994 9.236-6.001 14.479-6.001s10.486 2.007 14.479 6.001c8.008 8.008 8.008 20.951 0 28.959l-116.879 116.879-116.879-116.879c-8.008-8.008-8.008-20.951 0-28.959s20.951-8.008 28.959 0l67.441 67.441v-216.801h-293.478c-109.199 0-198.042 88.842-198.042 198.021 0 83.395 52.859 157.737 130.335 185.958 5.059 74.568 67.359 133.693 143.217 133.693 28.508 0 55.747-8.274 78.991-23.654 44.974 90.849 138.67 150.159 241.254 150.159 148.5 0 269.292-120.812 269.292-269.312 0-3.768-0.102-7.639-0.307-11.633 91.116-10.854 161.219-87.88 161.219-180.961zM491.52 59.822c0-11.325 9.175-20.48 20.48-20.48s20.48 9.155 20.48 20.48v143.36h-40.96v-143.36z" />
<glyph unicode="&#xe62a;" glyph-name="uniE62A" data-tags="uniE62A" d="M1024 603.826c0-258.248-226.371-409.778-391.68-520.437-42.385-28.36-78.982-52.87-106.073-75.464l-14.247-11.865-14.247 11.865c-27.091 22.595-63.688 47.082-106.073 75.464-165.309 110.659-391.68 262.189-391.68 520.437 0 159.566 129.825 289.391 289.391 289.391 86.728 0 167.891-38.6 222.609-104.604 54.717 66.003 135.88 104.604 222.609 104.604 159.566 0 289.391-129.825 289.391-289.391z" />
<glyph unicode="&#xe62b;" glyph-name="uniE62B" data-tags="uniE62B" d="M679.936 331.264v0c0-20.48-8.192-122.88-145.408-133.12v-57.344h-40.96v57.344c-55.296 6.144-143.36 24.576-147.456 161.792h43.008c-4.096-129.024 120.832-129.024 124.928-129.024 120.832 0 124.928 81.92 124.928 100.352 0 145.408-280.576 43.008-280.576 235.52 0 38.912 20.48 124.928 135.168 131.072v57.344h40.96v-57.344c98.304-4.096 139.264-88.064 135.168-145.408h-43.008c-2.048 34.816-14.336 112.64-112.64 112.64-96.256 0-114.688-55.296-114.688-102.4 0-141.312 280.576-47.104 280.576-231.424zM1003.52 448c0-271.012-220.508-491.52-491.52-491.52s-491.52 220.508-491.52 491.52 220.508 491.52 491.52 491.52 491.52-220.508 491.52-491.52zM962.56 448c0 248.443-202.117 450.56-450.56 450.56s-450.56-202.117-450.56-450.56 202.117-450.56 450.56-450.56 450.56 202.117 450.56 450.56z" />
<glyph unicode="&#xe62c;" glyph-name="uniE62C" data-tags="uniE62C" d="M81.92 960v-1024h860.16v1024h-860.16zM901.12-23.040h-778.24v942.080h778.24v-942.080zM655.36 325.12h102.4v-40.96h-102.4v40.96zM655.36 202.24h102.4v-40.96h-102.4v40.96zM655.36 448h102.4v-40.96h-102.4v40.96zM552.96 161.28h-286.72v40.96h286.72v-40.96zM552.96 284.16h-286.72v40.96h286.72v-40.96zM757.76 693.76h-491.52v40.96h491.52v-40.96zM552.96 407.040h-286.72v40.96h286.72v-40.96z" />
<glyph unicode="&#xe62d;" glyph-name="uniE62D" data-tags="uniE62D" d="M608.256 460.288v2.048c14.336 4.096 86.016 26.624 86.016 110.592 0 104.509-99.041 118.6-141.312 120.504v61.768h-40.96v-61.44h-40.96v61.44h-40.96v-61.44h-102.4v-491.52h102.4v-61.44h40.96v61.44h40.96v-61.44h40.96v61.604c47.124 1.352 159.744 14.623 159.744 139.1 0 86.016-73.728 114.688-104.448 118.784zM374.784 654.848h161.792c73.728 0 110.592-30.72 110.592-92.16 0-12.288-2.048-22.528-6.144-32.768s-12.288-18.432-20.48-26.624c-10.24-8.192-20.48-14.336-34.816-18.432s-30.72-6.144-49.152-6.144v0h-161.792v176.128zM655.36 292.352c-8.192-12.288-16.384-22.528-28.672-30.72s-24.576-14.336-40.96-16.384c-14.336-2.048-30.72-4.096-49.152-4.096h-161.792v196.608h161.792c40.96 0 73.728-8.192 96.256-24.576s32.768-40.96 32.768-71.68c0-20.48-4.096-36.864-10.24-49.152zM512 939.52c-271.012 0-491.52-220.508-491.52-491.52s220.508-491.52 491.52-491.52 491.52 220.508 491.52 491.52-220.508 491.52-491.52 491.52zM512-2.56c-248.443 0-450.56 202.117-450.56 450.56s202.117 450.56 450.56 450.56 450.56-202.117 450.56-450.56-202.117-450.56-450.56-450.56z" />
<glyph unicode="&#xe62e;" glyph-name="uniE62E" data-tags="uniE62E" d="M653.578 718.070l-174.346 174.346c-8.192 8.192-20.48 8.192-28.672 0l-14.602-14.459c-193.188-3.052-313.078-63.222-313.078-157.573 0-41.984 19.026-75.837 50.852-102.748l-108.196-108.196c-16.384-16.384-24.576-38.912-24.576-61.44s8.192-45.056 24.576-61.44l323.584-323.584c16.384-16.384 36.864-24.576 61.44-24.576 22.528 0 45.056 8.192 61.44 24.576l369.213 369.213c18.043-19.845 40.387-49.623 40.387-80.445 0-23.572-4.71-55.194-9.728-88.678-5.263-35.451-10.752-72.090-10.752-101.786 0-33.874 27.566-61.44 61.44-61.44s61.44 27.566 61.44 61.44v219.136c0 159.683-228.864 279.081-370.422 337.654zM481.28 93.696c-16.384-16.384-47.104-16.384-63.488 0l-323.584 323.584c-8.192 8.192-12.288 18.432-12.288 30.72s4.096 22.528 12.288 32.768l113.377 113.377c71.987-41.267 180.613-60.334 289.3-63.672 7.025-12.493 20.234-21.033 35.594-21.033 22.63 0 40.96 18.33 40.96 40.96s-18.33 40.96-40.96 40.96c-14.889 0-27.812-8.028-34.98-19.907-161.137 5.1-333.66 46.080-333.66 148.931 0 61.133 90.214 105.144 228.884 114.729l-163.348-161.833c10.24-8.192 24.576-14.336 36.864-20.48l196.608 196.608 161.014-161.014c0.266-0.307 0.41-0.696 0.696-0.983l33.731-33.444 191.631-191.631-368.64-368.64zM983.040 161.28c0-11.305-9.175-20.48-20.48-20.48s-20.48 9.175-20.48 20.48c0 26.665 5.243 61.788 10.322 95.724 5.222 35.021 10.158 68.116 10.158 94.74 0 57.59-47.268 104.878-67.502 125.133l-34.263 33.976-123.494 123.494c112.517-57.733 245.74-148.357 245.74-253.932v-219.136z" />
<glyph unicode="&#xe62f;" glyph-name="uniE62F" data-tags="uniE62F" d="M286.72 284.16h-163.84c-23.736 0-40.96-17.224-40.96-40.96v-122.88c0-23.736 17.224-40.96 40.96-40.96h163.84c23.736 0 40.96 17.224 40.96 40.96v122.88c0 23.736-17.224 40.96-40.96 40.96zM286.72 120.32h-163.84v122.88h163.84l1.024-122.778c0 0-0.307-0.102-1.024-0.102zM286.72 550.4h-163.84c-23.736 0-40.96-17.224-40.96-40.96v-122.88c0-23.736 17.224-40.96 40.96-40.96h163.84c23.736 0 40.96 17.224 40.96 40.96v122.88c0 23.736-17.224 40.96-40.96 40.96zM286.72 386.56h-163.84v122.88h163.84l1.024-122.778c0 0-0.307-0.102-1.024-0.102zM286.72 816.64h-163.84c-23.736 0-40.96-17.224-40.96-40.96v-122.88c0-23.736 17.224-40.96 40.96-40.96h163.84c23.736 0 40.96 17.224 40.96 40.96v122.88c0 23.736-17.224 40.96-40.96 40.96zM286.72 652.8h-163.84v122.88h163.84l1.044-122.778c0 0-0.328-0.102-1.044-0.102zM901.12 550.4h-163.84c-23.736 0-40.96-17.224-40.96-40.96v-122.88c0-23.736 17.224-40.96 40.96-40.96h163.84c23.736 0 40.96 17.224 40.96 40.96v122.88c0 23.736-17.224 40.96-40.96 40.96zM901.12 386.56h-163.84v122.88h163.84l1.024-122.778c0 0-0.307-0.102-1.024-0.102zM901.12 816.64h-163.84c-23.736 0-40.96-17.224-40.96-40.96v-122.88c0-23.736 17.224-40.96 40.96-40.96h163.84c23.736 0 40.96 17.224 40.96 40.96v122.88c0 23.736-17.224 40.96-40.96 40.96zM901.12 652.8h-163.84v122.88h163.84l1.044-122.778c0 0-0.328-0.102-1.044-0.102zM901.12 284.16h-163.84c-23.736 0-40.96-17.224-40.96-40.96v-122.88c0-23.736 17.224-40.96 40.96-40.96h163.84c23.736 0 40.96 17.224 40.96 40.96v122.88c0 23.736-17.224 40.96-40.96 40.96zM901.12 120.32h-163.84v122.88h163.84l1.024-122.778c0 0-0.307-0.102-1.024-0.102zM593.92 550.4h-163.84c-23.736 0-40.96-17.224-40.96-40.96v-122.88c0-23.736 17.224-40.96 40.96-40.96h163.84c23.736 0 40.96 17.224 40.96 40.96v122.88c0 23.736-17.224 40.96-40.96 40.96zM593.92 386.56h-163.84v122.88h163.84l1.024-122.778c0 0-0.307-0.102-1.024-0.102zM593.92 284.16h-163.84c-23.736 0-40.96-17.224-40.96-40.96v-122.88c0-23.736 17.224-40.96 40.96-40.96h163.84c23.736 0 40.96 17.224 40.96 40.96v122.88c0 23.736-17.224 40.96-40.96 40.96zM593.92 120.32h-163.84v122.88h163.84l1.024-122.778c0 0-0.307-0.102-1.024-0.102zM593.92 816.64h-163.84c-23.736 0-40.96-17.224-40.96-40.96v-122.88c0-23.736 17.224-40.96 40.96-40.96h163.84c23.736 0 40.96 17.224 40.96 40.96v122.88c0 23.736-17.224 40.96-40.96 40.96zM593.92 652.8h-163.84v122.88h163.84l1.044-122.778c0 0-0.328-0.102-1.044-0.102z" />
<glyph unicode="&#xe630;" glyph-name="uniE630" data-tags="uniE630" d="M511.98 775.68c-180.675 0-327.68-147.005-327.68-327.68 0-3.809-1.331-7.188-3.133-10.24 1.823-3.052 3.133-6.431 3.133-10.24 0-12.759 0.758-25.743 2.232-38.564 1.311-11.244-6.738-21.402-17.981-22.692-0.799-0.102-1.597-0.143-2.396-0.143-10.24 0-19.108 7.68-20.316 18.125-1.638 14.377-2.499 28.938-2.499 43.274 0 3.809 1.331 7.188 3.133 10.24-1.823 3.052-3.133 6.431-3.133 10.24 0 203.264 165.376 368.64 368.64 368.64 104.202 0 204.001-44.38 273.797-121.774 4.444-4.915 8.765-9.974 12.943-15.155v136.929c0 11.305 9.155 20.48 20.48 20.48s20.48-9.175 20.48-20.48v-204.8l-204.8 0.020c-11.325 0-20.48 9.175-20.48 20.48s9.175 20.48 20.48 20.48h132.915c-4.014 4.997-8.151 9.871-12.411 14.623-62.054 68.772-150.794 108.237-243.405 108.237zM388.874 123.74c-26.972 10.936-52.47 25.498-75.715 43.274-9.032 6.861-21.852 5.12-28.713-3.85-6.861-8.991-5.14-21.832 3.83-28.713 26.173-19.988 54.845-36.372 85.217-48.681 2.519-1.024 5.12-1.495 7.68-1.495 8.11 0 15.77 4.813 18.985 12.78 4.26 10.506-0.799 22.446-11.284 26.685zM208.2 304.415c-4.26 10.486-16.179 15.544-26.665 11.284-10.486-4.239-15.544-16.2-11.284-26.685 12.329-30.372 28.692-59.044 48.681-85.176 4.035-5.284 10.117-8.049 16.282-8.049 4.342 0 8.724 1.372 12.431 4.219 8.97 6.861 10.691 19.722 3.83 28.692-17.777 23.265-32.338 48.722-43.274 75.715zM860.14 448c-11.325 0-20.48-9.155-20.48-20.48 0-6.492-0.184-12.943-0.532-19.333-0.635-11.284 8.008-20.951 19.292-21.586 0.389-0.020 0.778-0.041 1.167-0.041 10.772 0 19.825 8.438 20.419 19.333 0.41 7.168 0.614 14.356 0.614 21.627 0 11.325-9.155 20.48-20.48 20.48zM848.691 336.323c-10.691 3.564-22.323-2.171-25.928-12.923-4.567-13.578-10.076-27.034-16.425-39.977-4.956-10.138-0.758-22.426 9.4-27.402 2.908-1.413 5.96-2.089 8.97-2.089 7.578 0 14.868 4.219 18.412 11.489 7.127 14.541 13.332 29.676 18.452 44.974 3.645 10.732-2.13 22.323-12.882 25.928zM656.097 133.14c-12.943-6.369-26.378-11.858-39.956-16.404-10.711-3.564-16.527-15.155-12.943-25.907 2.867-8.581 10.834-14.008 19.415-14.008 2.13 0 4.321 0.348 6.472 1.065 15.319 5.1 30.454 11.325 45.036 18.473 10.158 4.977 14.336 17.265 9.359 27.402-4.956 10.179-17.224 14.356-27.382 9.38zM758.477 211.62c-9.482-10.813-19.763-21.094-30.577-30.577-8.499-7.455-9.359-20.398-1.905-28.897 4.035-4.628 9.728-6.984 15.401-6.984 4.792 0 9.626 1.679 13.496 5.079 12.165 10.67 23.716 22.221 34.386 34.386 7.455 8.499 6.595 21.443-1.905 28.897-8.458 7.414-21.443 6.636-28.897-1.905zM531.21 100.393c-6.369-0.389-12.8-0.553-19.231-0.553-12.923 0-25.887 0.758-38.523 2.232-11.121 1.331-21.402-6.697-22.733-17.94-1.311-11.244 6.717-21.422 17.94-22.733 14.234-1.679 28.795-2.519 43.315-2.519 7.27 0 14.541 0.205 21.75 0.635 11.305 0.696 19.886 10.424 19.19 21.709s-10.527 19.661-21.709 19.169z" />
<glyph unicode="&#xe631;" glyph-name="uniE631" data-tags="uniE631" d="M877.527 437.76c1.823-3.052 3.133-6.431 3.133-10.24 0-14.336-0.84-28.897-2.519-43.274-1.208-10.445-10.056-18.125-20.316-18.125-0.778 0-1.577 0.041-2.376 0.143-11.244 1.29-19.272 11.469-17.981 22.692 1.475 12.82 2.232 25.805 2.232 38.564 0 3.809 1.331 7.188 3.133 10.24-1.823 3.052-3.133 6.431-3.133 10.24 0 180.675-147.005 327.68-327.68 327.68-92.631 0-181.33-39.465-243.384-108.257-4.28-4.731-8.417-9.626-12.431-14.602h132.915c11.305 0 20.48-9.175 20.48-20.48s-9.175-20.48-20.48-20.48l-204.8-0.020v204.8c0 11.305 9.175 20.48 20.48 20.48s20.48-9.175 20.48-20.48v-136.929c4.178 5.161 8.499 10.22 12.923 15.135 69.816 77.414 169.615 121.795 273.818 121.795 203.264 0 368.64-165.376 368.64-368.64 0-3.809-1.331-7.188-3.133-10.24zM550.523 102.072c-12.595-1.475-25.559-2.232-38.502-2.232-6.431 0-12.841 0.164-19.21 0.553-11.346 0.512-21.012-7.885-21.709-19.19-0.696-11.284 7.885-20.992 19.169-21.709 7.209-0.41 14.479-0.614 21.75-0.614 14.541 0 29.123 0.84 43.295 2.519 11.244 1.311 19.251 11.51 17.94 22.733s-11.469 19.313-22.733 17.94zM842.445 315.699c-10.465 4.239-22.426-0.799-26.665-11.305-10.916-26.952-25.457-52.429-43.233-75.674-6.881-8.97-5.161-21.832 3.83-28.692 3.727-2.847 8.090-4.219 12.411-4.219 6.164 0 12.268 2.765 16.282 8.049 20.029 26.173 36.393 54.845 48.681 85.197 4.239 10.465-0.84 22.405-11.305 26.644zM710.82 167.014c-23.286-17.777-48.763-32.338-75.715-43.274-10.486-4.239-15.524-16.2-11.284-26.685 3.215-7.967 10.895-12.78 18.985-12.78 2.56 0 5.181 0.471 7.7 1.495 30.331 12.308 59.003 28.672 85.197 48.681 8.97 6.881 10.691 19.722 3.85 28.713-6.902 8.97-19.722 10.65-28.733 3.85zM165.622 386.601c11.284 0.635 19.927 10.322 19.272 21.627-0.369 6.369-0.553 12.82-0.553 19.292 0 11.325-9.175 20.48-20.48 20.48s-20.48-9.155-20.48-20.48c0-7.27 0.205-14.479 0.614-21.668 0.635-10.875 9.667-19.292 20.439-19.292 0.389 0 0.799 0.020 1.188 0.041zM201.216 323.4c-3.604 10.732-15.176 16.527-25.928 12.923-10.711-3.604-16.507-15.196-12.902-25.928 5.14-15.319 11.346-30.454 18.473-44.995 3.564-7.25 10.834-11.469 18.412-11.469 3.011 0 6.103 0.655 8.991 2.109 10.158 4.977 14.356 17.244 9.38 27.402-6.349 12.923-11.858 26.358-16.425 39.956zM265.503 211.62c-7.475 8.499-20.378 9.359-28.897 1.905s-9.359-20.398-1.905-28.897c10.691-12.206 22.262-23.757 34.386-34.386 3.871-3.4 8.684-5.079 13.476-5.079 5.693 0 11.366 2.355 15.421 6.984 7.455 8.52 6.595 21.463-1.925 28.897-10.752 9.441-21.053 19.743-30.556 30.577zM407.859 116.736c-13.599 4.547-27.034 10.056-39.956 16.404-10.158 4.956-22.426 0.799-27.402-9.359-4.997-10.138-0.799-22.426 9.359-27.402 14.561-7.168 29.716-13.373 45.056-18.473 2.15-0.717 4.321-1.065 6.472-1.065 8.581 0 16.568 5.427 19.436 14.008 3.564 10.711-2.253 22.303-12.964 25.887z" />
<glyph unicode="&#xe632;" glyph-name="uniE632" data-tags="uniE632" d="M757.76 673.28v-450.56c0-57.344-45.056-102.4-102.4-102.4h-552.96c-57.344 0-102.4 45.056-102.4 102.4v450.56c0 57.344 45.056 102.4 102.4 102.4h552.96c57.344 0 102.4-45.056 102.4-102.4zM798.72 587.264v-278.528l225.28-120.832v520.192l-225.28-120.832z" />
<glyph unicode="&#xe633;" glyph-name="uniE633" data-tags="uniE633" d="M675.84 497.439l28.959-28.959-233.759-233.759-131.359 131.359 28.959 28.959 102.4-102.4 204.8 204.8zM1024 611.84v-81.92c0-23.736-17.224-40.96-40.96-40.96h-3.379l-114.278-366.531c-6.103-24.494-30.802-43.069-58.47-43.069h-593.92c-25.743 0-48.538 16.486-58.081 41.984l-110.735 367.616h-3.215c-23.736 0-40.96 17.224-40.96 40.96v81.92c0 23.736 17.224 40.96 40.96 40.96h196.26l258.191 260.198c3.85 3.871 8.868 6.84 14.541 6.042 5.407 0 10.588-2.13 14.438-5.939l262.287-260.301h196.362c23.736 0 40.96-17.224 40.96-40.96zM294.932 652.8h433.582l-218.46 216.801-215.122-216.801zM983.040 611.84h-204.78c-0.020 0-0.020 0-0.020 0h-532.46c-0.020 0-0.020 0-0.041 0h-204.78v-81.92h18.432c9.032 0 17.019-5.919 19.62-14.582l114.688-380.928c0.901-2.314 6.328-14.090 19.292-14.090h593.92c8.827 0 17.183 5.775 19.046 13.169l119.071 382.054c2.683 8.54 10.609 14.377 19.579 14.377h18.432v81.92z" />
<glyph unicode="&#xe634;" glyph-name="uniE634" data-tags="uniE634" d="M942.039 39.629c-7.434 124.211-106.68 163.41-186.429 194.908-47.903 18.903-89.457 35.328-101.97 64.102-1.966 23.224-1.802 41.247-1.618 61.993l0.061 9.83c18.371 18.78 37.294 58.696 44.175 94.249 14.418 7.455 32.338 25.784 37.724 70.717 2.703 22.344-3.809 39.526-12.78 50.811 11.899 40.55 36.454 145.92-5.53 213.463-17.592 28.324-44.257 46.162-79.319 53.105-19.333 24.433-56.422 37.745-106.189 37.745-75.387-1.393-130.56-24.433-163.983-68.465-39.588-52.183-46.94-131.277-21.893-235.192-9.236-11.284-16.036-28.692-13.312-51.466 5.427-45.158 22.979-63.57 37.765-70.963 7.025-35.451 26.378-75.366 45.22-94.126l0.041-9.585c0.184-20.787 0.348-38.83-1.638-62.116-12.534-28.774-54.252-45.179-102.359-64.102-80.036-31.478-179.63-70.656-187.105-194.908l-1.29-21.709h821.74l-1.311 21.709zM166.461 58.88c15.483 81.265 88.125 109.814 158.556 137.523 56.095 22.057 109.076 42.906 126.71 90.276l1.208 5.304c2.417 26.747 2.232 47.329 2.048 69.12l-0.102 18.944 0.369 12.186-10.977 5.734c-8.97 6.103-32.911 47.411-36.864 84.357l-1.782 16.855-16.896 1.393c-2.621 0.225-13.21 7.598-17.060 39.731-1.966 16.527 6.062 22.344 6.103 22.364l13.005 7.905-3.83 14.725c-24.863 95.662-20.746 168.98 11.919 212.009 25.457 33.546 69.898 51.139 131.727 52.265 38.441 0 66.867-9.605 76.022-25.661l4.997-8.765 9.974-1.393c27.361-3.809 46.776-15.462 59.31-35.676 31.457-50.627 13.251-144.179-2.458-191.468l-4.321-15.299 13.107-8.643c0.082-0.061 8.11-5.857 6.103-22.385-3.85-32.133-14.438-39.526-17.060-39.731l-16.876-1.393-1.802-16.835c-3.973-37.151-27.197-78.418-35.41-84.173l-10.957-5.734-0.123-31.437c-0.184-21.75-0.369-42.312 2.048-68.997l1.208-5.304c17.613-47.35 70.41-68.198 126.28-90.255 70.144-27.709 142.479-56.259 157.921-137.544h-732.099z" />
<glyph unicode="&#xe635;" glyph-name="uniE635" data-tags="uniE635" d="M1003.52 960h-983.040v-696.32h168.202c-2.54-3.461-4.362-7.393-4.362-11.796 0-6.41 2.99-12.452 8.11-16.323l231.793-175.636c6.226-4.731 14.541-5.509 21.484-2.028 6.963 3.461 11.366 10.568 11.366 18.35v93.86c281.17-9.052 300.012-204.063 300.687-212.541 0.799-10.691 9.728-18.944 20.419-18.944 0.123 0 0.266 0 0.389 0 10.895 0.205 19.722 8.909 20.070 19.784 0.246 6.779 4.526 167.26-101.581 277.053-9.974 10.322-20.787 19.517-31.99 28.221h338.452v696.32zM962.56 919.040v-46.367l-385.516-329.994c-27.464-23.47-54.641-26.010-65.044-26.010s-37.581 2.54-65.024 26.010c-27.402 23.409-342.446 293.089-385.536 329.974v46.387h901.12zM962.56 818.749v-416.215l-254.956 197.98 254.956 218.235zM316.416 600.494l-254.976-197.98v416.236c54.661-46.797 169.39-144.998 254.976-218.255zM731.546 103.117c-50.811 56.504-139.715 108.257-294.953 108.257-11.305 0-20.48-9.155-20.48-20.48v-73.441l-177.398 134.41 177.398 134.41v-73.4c0-11.325 9.175-20.48 20.48-20.48 98.386 0 176.046-28.652 230.789-85.176 30.515-31.498 50.749-68.485 64.164-104.1zM594.78 304.64c-40.612 16.835-86.569 26.378-137.708 28.365v94.515c0 7.782-4.403 14.889-11.366 18.35-6.943 3.482-15.278 2.703-21.484-2.028l-183.706-139.203h-179.077v45.998l286.74 222.659c37.356-31.969 64.901-55.542 72.172-61.768 37.827-32.358 76.698-35.84 91.648-35.84s53.821 3.482 91.668 35.84l72.172 61.809 286.72-222.659v-46.039h-367.78z" />
<glyph unicode="&#xe636;" glyph-name="uniE636" data-tags="uniE636" d="M1003.52 960h-983.040v-696.32h338.432c-11.203-8.684-22.016-17.9-31.99-28.201-106.086-109.814-101.827-270.295-101.581-277.074 0.389-10.854 9.155-19.497 20.009-19.743 0.164 0 0.307 0 0.471 0 10.65 0 19.558 8.212 20.419 18.883 0.676 8.499 19.517 203.53 300.687 212.562v-93.86c0-7.782 4.403-14.889 11.366-18.35 7.004-3.461 15.299-2.683 21.484 2.028l231.793 175.636c5.12 3.85 8.11 9.892 8.11 16.323 0 4.403-1.823 8.335-4.362 11.796h168.202v696.32zM962.56 919.040v-46.367l-385.516-329.994c-27.464-23.47-54.641-26.010-65.044-26.010s-37.581 2.54-65.024 26.010c-27.402 23.409-342.446 293.089-385.536 329.974v46.387h901.12zM962.56 818.749v-416.236l-254.976 198.001 254.976 218.235zM316.396 600.515l-254.956-197.96v416.195c54.661-46.797 169.37-144.978 254.956-218.235zM607.887 117.453v73.441c0 11.325-9.155 20.48-20.48 20.48-155.382 0-244.326-51.876-295.117-108.462 13.373 35.553 33.587 72.499 64.102 104.1 54.743 56.668 132.465 85.402 230.994 85.402 11.325 0 20.48 9.155 20.48 20.48v73.4l177.398-134.41-177.377-134.431zM783.462 304.64l-183.706 139.203c-6.205 4.71-14.5 5.509-21.484 2.028-6.963-3.461-11.366-10.568-11.366-18.35v-94.515c-51.159-1.966-97.096-11.53-137.708-28.365h-367.759v46.039l286.72 222.659c37.356-31.99 64.922-55.562 72.192-61.788 37.827-32.358 76.698-35.84 91.648-35.84s53.821 3.482 91.668 35.84l72.151 61.768 286.74-222.679v-45.998h-179.098z" />
<glyph unicode="&#xe637;" glyph-name="uniE637" data-tags="uniE637" d="M512 960c-203.264 0-368.64-156.18-368.64-348.16v-491.52c0-103.363 161.935-184.32 368.64-184.32 206.725 0 368.64 80.957 368.64 184.32v491.52c0 191.98-165.376 348.16-368.64 348.16zM512 919.040c152.924 0 281.702-98.714 317.686-231.731-68.465 44.483-195.707 67.891-317.686 67.891-121.999 0-249.201-23.409-317.686-67.891 35.983 133.018 164.782 231.731 317.686 231.731zM839.68 120.32c0-69.243-131.686-143.36-327.68-143.36-196.014 0-327.68 74.117-327.68 143.36v423.014c4.915-3.686 10.22-7.229 15.852-10.65 0.020-0.020 0.041-0.061 0.061-0.102 11.919-17.203 16.794-43.356 21.504-68.649 8.151-43.602 18.268-97.853 75.223-97.853 41.083 0 59.699 18.452 72.008 30.659 8.417 8.335 10.895 10.301 16.056 10.301 20.173 0 21.504-58.020 22.589-104.632 1.864-81.121 4.157-182.088 92.099-182.088 21.484 0 38.769 6.799 51.343 20.214 27.791 29.676 24.351 82.452 20.726 138.342-2.99 45.834-6.39 97.792 12.37 117.842 6.513 6.943 16.404 10.322 30.618 10.568 3.482-3.215 6.205-20.398 7.823-30.638 5.489-34.611 14.623-92.488 83.968-92.488 67.277 0 73.298 66.826 78.602 125.768 4.116 45.752 8.376 93.082 35.348 116.961 2.232 1.987 3.932 4.342 5.1 6.902 4.977 3.072 9.687 6.267 14.090 9.544v-423.014zM530.903 276.193c2.785-42.619 5.939-90.931-9.748-107.663-2.908-3.113-8.315-7.25-21.443-7.25-44.564 0-49.193 56.238-51.159 142.070-1.638 71.107-3.318 144.65-63.529 144.65-22.548 0-34.939-12.308-44.892-22.18-10.588-10.506-18.944-18.78-43.172-18.78-19.763 0-25.784 15.299-34.939 64.43-2.171 11.612-4.444 23.88-7.578 35.983 70.513-25.641 165.519-38.973 257.556-38.973 87.757 0 178.237 12.124 247.583 35.471-9.646-28.467-12.534-60.58-15.217-90.358-5.96-66.376-12.268-88.474-37.806-88.474-31.232 0-37.007 16.753-43.5 57.917-4.096 25.866-10.281 64.963-48.66 64.963-25.416 0-45.65-7.844-60.129-23.286-30.884-32.973-27.075-91.709-23.368-148.521zM512 509.44c-203.018 0-327.68 59.638-327.68 102.4s124.662 102.4 327.68 102.4 327.68-59.638 327.68-102.4-124.662-102.4-327.68-102.4z" />
<glyph unicode="&#xe638;" glyph-name="uniE638" data-tags="uniE638" horiz-adv-x="1025" d="M779.51 427.52c-135.516 0-245.76-110.244-245.76-245.76s110.244-245.76 245.76-245.76 245.76 110.244 245.76 245.76-110.244 245.76-245.76 245.76zM779.51-23.040c-112.927 0-204.8 91.873-204.8 204.8s91.873 204.8 204.8 204.8 204.8-91.873 204.8-204.8-91.873-204.8-204.8-204.8zM550.912 336.65l-20.91-35.246c-16.712 9.933-29.614 26.071-37.274 46.694l-1.208 5.304c-2.417 26.706-2.232 47.268-2.048 69.018l0.102 31.396 10.957 5.755c8.212 5.755 31.457 47.002 35.43 84.173l1.802 16.835 16.876 1.393c2.621 0.225 13.21 7.598 17.060 39.752 2.007 16.507-6.021 22.303-6.103 22.364l-13.107 8.643 4.321 15.299c15.729 47.288 33.915 140.82 2.458 191.468-12.554 20.214-31.969 31.887-59.331 35.697l-9.994 1.372-4.977 8.786c-9.155 16.077-37.56 25.661-76.022 25.661-61.829-1.147-106.271-18.739-131.727-52.265-32.645-43.028-36.762-116.347-11.919-212.009l3.83-14.725-13.005-7.905c-0.041-0.020-8.069-5.857-6.103-22.364 3.85-32.133 14.438-39.526 17.060-39.731l16.896-1.393 1.782-16.855c3.953-36.946 27.914-78.275 36.864-84.357l10.957-5.755-0.369-12.165 0.102-18.944c0.184-21.791 0.369-42.373-2.048-69.1l-1.208-5.304c-17.633-47.391-70.615-68.26-126.73-90.317-70.349-27.709-142.971-56.259-158.474-137.503h455.291l13.128-40.96h-513.27l1.311 21.709c7.455 124.211 107.069 163.41 187.085 194.888 48.128 18.924 89.846 35.348 102.38 64.143 1.966 23.265 1.802 41.329 1.638 62.095l-0.041 9.585c-18.821 18.78-38.175 58.696-45.22 94.126-14.807 7.393-32.338 25.805-37.765 70.963-2.724 22.774 4.096 40.182 13.312 51.466-25.047 103.936-17.695 183.030 21.893 235.192 33.423 44.032 88.596 67.072 163.963 68.465 49.766 0 86.835-13.312 106.168-37.745 35.082-6.943 61.747-24.781 79.34-53.125 41.984-67.564 17.428-172.913 5.53-213.463 8.97-11.305 15.483-28.488 12.78-50.811-5.448-45.138-22.958-63.549-37.765-70.943-6.943-35.471-25.805-75.244-44.134-94.003l-0.061-9.81c-0.184-20.787-0.348-38.83 1.638-62.095 4.424-10.691 10.732-18.534 18.862-23.347zM799.99 202.24h102.4v-40.96h-102.4v-102.4h-40.96v102.4h-102.4v40.96h102.4v102.4h40.96v-102.4z" />
<glyph unicode="&#xe639;" glyph-name="uniE639" data-tags="uniE639" d="M512 960c-282.317 0-512-229.683-512-512s229.683-512 512-512 512 229.683 512 512-229.683 512-512 512zM512-23.040c-259.727 0-471.040 211.292-471.040 471.040 0 259.727 211.313 471.040 471.040 471.040 259.748 0 471.040-211.313 471.040-471.040 0-259.748-211.292-471.040-471.040-471.040zM817.152 552.448c0-21.217-8.724-37.171-19.395-48.312 10.609-12.104 19.395-28.877 19.395-49.992 0-30.638-18.104-50.422-35.103-61.010 1.147-9.482 2.314-21.668 2.314-31.15 0-31.519-29.757-65.536-77.824-65.536-37.868 0-67.625 4.915-102.072 10.629-15.79 2.601-32.748 5.407-52.183 8.008-6.021 0.717-17.285 1.085-21.258-4.321-4.567-6.246-4.69-23.552 5.775-46.858l4.874-10.076c22.692-46.797 50.934-105.021 20.685-156.18-11.899-20.869-38.748-40.571-64.573-40.571-3.174 0-6.349 0.307-9.441 0.942-9.83 1.987-33.219 10.629-37.642 47.616-8.11 85.094-50.401 118.641-91.3 151.081-16.507 13.107-33.567 26.624-47.35 42.947-11.121 13.476-20.562 26.808-29.676 39.69-23.429 33.075-38.728 53.35-57.098 53.35v40.96c40.509 0 64.799-34.345 90.522-70.697 8.684-12.288 17.654-24.965 27.668-37.089 11.018-13.025 25.764-24.719 41.39-37.11 43.151-34.243 96.87-76.841 106.578-178.79 0.635-5.284 2.478-11.346 5.059-11.858 6.656-1.372 23.081 7.107 30.495 20.070 19.21 32.502-1.802 75.817-22.139 117.719l-5.161 10.711c-16.118 35.799-16.65 67.809-1.7 88.289 8.499 11.612 25.702 24.678 59.372 20.787 20.275-2.703 37.642-5.55 53.821-8.233 34.017-5.612 60.908-10.056 95.396-10.056 26.030 0 36.864 15.995 36.864 24.576 0 12.165-2.785 32.911-3.85 39.895-1.516 9.871 4.301 19.395 13.783 22.569 2.15 0.758 22.856 8.745 22.856 29.696 0 21.565-21.238 32.768-21.463 32.87-7.27 3.645-11.715 11.264-11.305 19.395 0.43 8.131 5.632 15.258 13.271 18.104 1.782 0.717 19.476 8.438 19.476 27.935 0 22.098-29.635 34.038-29.942 34.14-5.939 2.355-10.527 7.352-12.268 13.496-1.72 6.164-0.553 12.8 3.277 17.9 0 0 8.192 11.612 8.192 26.604 0 9.585 0.020 16.056-13.926 24.248-17.715 10.445-59.556 22.876-158.106 22.876-152.781 0-204.964-16.548-246.886-29.86-29.164-9.257-54.354-17.244-101.274-17.244v40.96c40.571 0 61.891 6.758 88.883 15.34 44.626 14.152 100.147 31.764 259.277 31.764 87.716 0 146.227-9.318 178.852-28.508 34.181-20.070 34.161-47.329 34.14-58.941 0-12.001-2.499-22.548-5.55-30.945 18.022-12.268 36.27-32.891 36.27-61.829z" />
<glyph unicode="&#xe63a;" glyph-name="uniE63A" data-tags="uniE63A" d="M512 960c-282.317 0-512-229.683-512-512s229.683-512 512-512 512 229.683 512 512-229.683 512-512 512zM512-23.040c-259.727 0-471.040 211.292-471.040 471.040 0 259.727 211.313 471.040 471.040 471.040 259.748 0 471.040-211.313 471.040-471.040 0-259.748-211.292-471.040-471.040-471.040zM817.152 441.856c0-21.115-8.806-37.908-19.395-49.992 10.67-11.141 19.395-27.075 19.395-48.292 0-28.918-18.248-49.541-36.25-61.829 3.031-8.274 5.53-18.616 5.53-30.331 0.020-12.247 0.041-39.485-34.14-59.576-32.604-19.19-91.136-28.508-178.852-28.508-159.13 0-214.651 17.613-259.277 31.785-26.993 8.561-48.312 15.319-88.883 15.319v40.96c46.94 0 72.11-8.008 101.274-17.265 41.923-13.292 94.106-29.839 246.886-29.839 98.55 0 140.37 12.431 158.126 22.856 13.947 8.192 13.926 14.664 13.926 23.593 0 15.688-8.233 27.32-8.315 27.423-3.707 5.161-4.874 11.858-3.031 17.94 1.823 6.103 6.328 11.080 12.268 13.332 0.143 0.082 29.778 12.001 29.778 34.12 0 20.378-19.292 27.853-19.497 27.914-7.619 2.867-12.82 9.974-13.251 18.125-0.43 8.11 4.014 15.749 11.305 19.374 0.717 0.389 21.463 11.51 21.463 32.87 0 21.832-22.63 29.635-22.876 29.716-9.462 3.154-15.278 12.677-13.763 22.548 1.085 6.984 3.85 27.771 3.85 39.895 0 8.561-10.813 24.576-36.864 24.576-34.509 0-61.358-4.444-95.355-10.056-16.179-2.683-33.567-5.55-53.494-8.192-33.976-3.953-51.2 9.114-59.74 20.746-14.95 20.46-14.418 52.47 1.495 87.818l5.386 11.182c20.337 41.902 41.349 85.217 22.282 117.453-7.578 13.23-23.921 21.709-30.679 20.337-2.56-0.512-4.403-6.574-5.1-12.37-9.646-101.478-63.365-144.077-106.537-178.319-15.606-12.37-30.351-24.084-41.533-37.274-9.851-11.94-18.821-24.617-27.505-36.884-25.682-36.332-49.992-70.676-90.501-70.676v40.96c18.371 0 33.669 20.296 57.098 53.391 9.114 12.882 18.534 26.214 29.512 39.506 13.947 16.486 31.007 30.024 47.493 43.090 40.899 32.44 83.19 66.007 91.259 150.61 4.485 37.499 27.853 46.121 37.683 48.128 28.406 5.837 60.682-16.22 74.199-39.916 30.106-50.913 1.864-109.138-20.849-155.914l-5.079-10.547c-10.281-22.856-10.138-40.161-5.571-46.408 3.973-5.427 15.176-5.018 21.627-4.28 19.108 2.54 36.065 5.345 51.855 7.967 34.447 5.714 64.184 10.629 102.052 10.629 48.067 0 77.824-34.017 77.824-65.536 0-9.482-1.188-21.668-2.314-31.15 17.019-10.588 35.082-30.351 35.082-61.010z" />
<glyph unicode="&#xe63b;" glyph-name="uniE63B" data-tags="uniE63B" d="M839.68 279.204l-44.503-114.381-114.381-44.503 114.381-44.503 44.503-114.381 44.503 114.381 114.381 44.503-114.381 44.503-44.503 114.381zM852.541 107.459l-12.861-33.055-12.861 33.055-33.055 12.861 33.055 12.861 12.861 33.055 12.861-33.055 33.055-12.861-33.055-12.861zM598.016 212.48l51.2-20.48-51.2-20.48-20.48-51.2-20.48 51.2-51.2 20.48 51.2 20.48 20.48 51.2 20.48-51.2zM916.398 367.309l-79.462 178.749 186.716 59.74-184.074 72.131 89.969 174.899-179.958-79.974-62.28 186.798-69.632-184.074-177.398 89.948 82.493-179.958-188.477-61.993 166.789-64.143-136.745-137.974c-0.123-0.123-0.246-0.266-0.369-0.389l-323.891-323.912c-25.784-28.631-25.477-71.619 0.737-97.812l23.306-23.265c14.172-12.759 31.867-19.149 49.275-19.149 17.797 0 35.308 6.636 48.538 19.886l454.799 454.799 53.453-160.44 71.844 183.316 174.367-87.183zM456.561 329.359c-0.123-0.123-0.246-0.246-0.369-0.369l-323.215-323.215c-10.813-10.813-29-10.486-40.673 0l-22.528 22.528c-10.793 10.793-10.465 29 0 40.673l341.873 341.873 63.181-63.201-18.268-18.289zM503.808 376.607l-63.406 63.427 180.285 181.924c11.203 11.203 28.836 11.817 41.329-0.614l23.204-21.135c11.203-12.452 11.51-30.659 0.737-41.452l-182.149-182.149zM673.3 391.352l-24.207 72.622 65.802 65.802c26.173 26.194 26.522 69.161-0.635 99.205l-23.941 21.914c-13.292 13.312-30.331 20.337-49.295 20.337s-36.004-7.025-49.357-20.398l-59.105-59.638-76.329 29.368 122.86 40.407-52.675 114.954 113.418-57.508 45.036 119.030 40.12-120.381 114.954 51.098-57.528-111.821 119.030-46.653-120.484-38.543 51.63-116.142-112.333 56.177-46.961-119.828z" />
<glyph unicode="&#xe63c;" glyph-name="uniE63C" data-tags="uniE63C" d="M51.392 720.96v-682.4h921.248v682.4h-921.248zM938.496 72.672h-852.992v614.144h852.992v-614.144zM119.616 789.184h784.768v-34.112h-784.768v34.112zM187.872 857.44h648.288v-34.112h-648.288v34.112z" />
<glyph unicode="&#xe63d;" glyph-name="uniE63D" data-tags="uniE63D" d="M511.232 875.008c-235.712 0-426.784-191.040-426.784-426.784s191.040-426.784 426.784-426.784 426.784 191.040 426.784 426.784-191.040 426.784-426.784 426.784zM511.232 55.616c-216.48 0-392.64 176.128-392.64 392.64s176.16 392.64 392.64 392.64 392.64-176.16 392.64-392.64c0-216.48-176.16-392.64-392.64-392.64zM486.848 346.4l24.128-24.128 193.12 193.12-24.128 24.128-168.992-168.992-168.192 168.192-24.128-24.128 96.416-96.416z" />
<glyph unicode="&#xe63e;" glyph-name="uniE63E" data-tags="uniE63E" d="M487.456 346.4l24.128-24.128 193.12 193.12-24.128 24.128-168.992-168.992-168.192 168.192-24.128-24.128 96.416-96.416z" />
<glyph unicode="&#xe63f;" glyph-name="uniE63F" data-tags="uniE63F" d="M937.984 448.256c0 235.712-191.040 426.784-426.784 426.784s-426.784-191.040-426.784-426.784 191.040-426.784 426.784-426.784 426.784 191.040 426.784 426.784zM118.592 448.256c0 216.48 176.128 392.64 392.64 392.64s392.64-176.16 392.64-392.64-176.16-392.64-392.64-392.64c-216.48 0-392.64 176.16-392.64 392.64zM409.344 472.608l-24.128-24.128 193.12-193.12 24.128 24.128-168.992 168.992 168.192 168.192-24.128 24.128-96.416-96.416z" />
<glyph unicode="&#xe640;" glyph-name="uniE640" data-tags="uniE640" d="M409.344 472.544l-24.128-24.128 193.12-193.12 24.128 24.128-168.992 168.992 168.192 168.192-24.128 24.128-96.416-96.416z" />
<glyph unicode="&#xe641;" glyph-name="uniE641" data-tags="uniE641" d="M84.448 448.256c0-235.712 191.040-426.784 426.784-426.784s426.784 191.040 426.784 426.784-191.040 426.784-426.784 426.784-426.784-191.040-426.784-426.784zM903.84 448.256c0-216.48-176.128-392.64-392.64-392.64s-392.64 176.16-392.64 392.64 176.16 392.64 392.64 392.64c216.48 0 392.64-176.16 392.64-392.64zM613.088 423.872l24.128 24.128-193.12 193.12-24.128-24.128 168.992-168.992-168.192-168.192 24.128-24.128 96.416 96.416z" />
<glyph unicode="&#xe642;" glyph-name="uniE642" data-tags="uniE642" d="M613.088 423.456l24.128 24.128-193.12 193.12-24.128-24.128 168.992-168.992-168.192-168.192 24.128-24.128 96.416 96.416z" />
<glyph unicode="&#xe643;" glyph-name="uniE643" data-tags="uniE643" d="M511.232 21.472c235.712 0 426.784 191.040 426.784 426.784s-191.040 426.784-426.784 426.784-426.784-191.040-426.784-426.784 191.040-426.784 426.784-426.784zM511.232 840.864c216.48 0 392.64-176.128 392.64-392.64s-176.16-392.64-392.64-392.64-392.64 176.16-392.64 392.64c0 216.48 176.16 392.64 392.64 392.64zM535.584 550.112l-24.128 24.128-193.12-193.12 24.128-24.128 168.992 168.992 168.192-168.192 24.128 24.128-96.416 96.416z" />
<glyph unicode="&#xe644;" glyph-name="uniE644" data-tags="uniE644" d="M536.544 550.112l-24.128 24.128-193.12-193.12 24.128-24.128 168.992 168.992 168.192-168.192 24.128 24.128-96.416 96.416z" />
<glyph unicode="&#xe645;" glyph-name="uniE645" data-tags="uniE645" d="M511.968 848.896l-460.608-801.824h921.248l-460.64 801.824zM511.968 780.416l401.696-699.2h-803.36l401.664 699.2zM494.912 524.768h34.112v-238.848h-34.112v238.848zM511.936 234.752c-14.112 0-25.536-11.456-25.536-25.6 0-14.080 11.424-25.568 25.536-25.568 14.176 0 25.632 11.456 25.632 25.568 0 14.144-11.456 25.6-25.632 25.6z" />
<glyph unicode="&#xe646;" glyph-name="uniE646" data-tags="uniE646" d="M460.448 705.408v-139.968l33.792-0.32c234.72-2.272 366.912-106.656 401.376-318.208-128.928 149.152-277.6 149.216-401.024 149.248h-34.144v-138.784l-316.288 224.032 316.288 224zM494.592 771.424l-409.44-290.016 409.44-290.016v170.624c163.872-0.064 315.808-8.32 444.288-237.44 0 145.504-24.032 470.592-444.288 474.656v172.192z" />
<glyph unicode="&#xe647;" glyph-name="uniE647" data-tags="uniE647" d="M202.656 558.944v-566.624h785.056v785.056h-614.4v128l-341.344-232.096 170.656-114.336zM339.2 775.68c0 0 0-1.696 0 0v0-34.144h32.416c0 0 0 0 1.696 0 0 0 1.696 0 1.696 0h1.696c160.416 0 266.24-88.736 312.32-201.376-97.28 81.92-223.584 92.16-285.024 92.16-1.696 0-1.696 0-3.424 0h-61.44v-34.144c0 0 0 0 0 0v-90.464l-245.76 165.536 245.76 167.264v-64.864zM236.8 535.040l136.544-92.16v153.6c6.816 0 17.056 1.696 30.72 1.696 85.344 0 267.936-22.176 344.736-196.256 0 143.36-73.376 278.176-209.92 339.616h414.72v-716.8h-716.8v510.304z" />
<glyph unicode="&#xe648;" glyph-name="uniE648" data-tags="uniE648" d="M511.968 874.496c-235.552 0-426.464-190.976-426.464-426.528s190.912-426.464 426.464-426.464c235.552 0 426.528 190.912 426.528 426.464s-190.976 426.528-426.528 426.528zM903.936 465.024h-305.984c3.264 117.216 39.936 228.608 106.784 324.544 114.4-64.832 193.184-185.376 199.2-324.544zM511.968 840.384c57.632 0 112.32-12.608 161.664-34.976-69.152-100.8-106.912-217.664-110.112-340.352h-103.040c-3.232 122.72-40.992 239.584-110.144 340.352 49.344 22.4 104.032 34.976 161.632 34.976zM319.232 789.568c66.848-95.904 103.52-207.296 106.784-324.544h-305.984c5.952 139.168 84.8 259.744 199.2 324.544zM120.064 430.912h306.304c-3.264-117.312-39.872-228.8-106.752-324.704-114.592 64.768-193.568 185.408-199.552 324.704zM511.968 55.616c-57.6 0-112.288 12.576-161.632 34.976 69.184 100.768 106.912 217.536 110.144 340.288h103.040c3.2-122.784 40.992-239.552 110.112-340.288-49.344-22.4-104.032-34.976-161.664-34.976zM704.288 106.176c-66.848 95.904-103.424 207.392-106.656 324.736h306.304c-5.984-139.328-84.992-259.968-199.648-324.736z" />
<glyph unicode="&#xe649;" glyph-name="uniE649" data-tags="uniE649" d="M802.368 276v274.176c0 142.784-103.328 261.184-239.168 285.28v21.792c0 18.848-15.296 34.112-34.112 34.112h-34.112c-18.848 0-34.112-15.264-34.112-34.112v-21.888c-135.584-24.352-238.496-142.656-238.496-285.184v-274.176l-119.744-96.928v-55.328h818.88v55.328l-119.072 96.928zM887.328 157.888h-750.624v4.928l119.744 96.928v290.464c0 141.12 114.784 255.904 255.904 255.904 141.088 0 255.904-114.784 255.904-255.904v-290.4l119.072-96.928v-4.96zM511.968 4.608c47.136 0 85.408 38.144 85.408 85.312h-170.72c0.032-47.136 38.24-85.312 85.344-85.312z" />
<glyph unicode="&#xe64a;" glyph-name="uniE64A" data-tags="uniE64A" d="M96 448c0-231.776 187.872-419.616 419.616-419.616s419.616 187.84 419.616 419.616c0 231.744-187.872 419.616-419.616 419.616s-419.616-187.872-419.616-419.616zM901.664 448c0-212.864-173.184-386.048-386.048-386.048s-386.048 173.184-386.048 386.048c0 212.864 173.152 386.048 386.048 386.048s386.048-173.184 386.048-386.048zM335.2 422.528l-23.744-23.744 204.128-204.128 204.096 204.128-23.744 23.744-163.584-163.584v407.264h-33.568v-407.264z" />
<glyph unicode="&#xe64b;" glyph-name="uniE64B" data-tags="uniE64B" d="M921.44 831.84h-818.88v-221.792h34.144v-545.92h750.624v545.92h34.112v221.792zM853.216 98.272h-682.368v511.808h682.368v-511.808zM887.328 644.192h-750.624v153.536h750.624v-153.536zM388.608 388.128h247.648c35.264 0 63.872 27.776 63.872 62.048v12.352c0 34.272-28.608 62.048-63.872 62.048h-247.648c-35.264 0-63.84-27.776-63.84-62.048v-12.352c0-34.272 28.544-62.048 63.84-62.048zM358.88 462.56c0 15.424 13.312 27.936 29.696 27.936h247.648c16.384 0 29.728-12.544 29.728-27.936v-12.352c0-15.424-13.344-27.936-29.728-27.936h-247.648c-16.384 0-29.696 12.544-29.696 27.936v12.352z" />
<glyph unicode="&#xe64c;" glyph-name="uniE64C" data-tags="uniE64C" d="M955.872 767.168l-443.872 163.2-460.608-169.056v-628.544l460.608-167.104 460.608 167.104v628.288l-16.768 6.144zM494.944 8.128l-409.44 148.544v567.904l409.44-148.544v-567.904zM512 606.144l-394.432 143.104 394.432 144.768 394.080-144.896-394.080-142.976zM938.496 156.672l-409.44-148.544v567.904l409.44 147.936v-567.296z" />
<glyph unicode="&#xe64d;" glyph-name="uniE64D" data-tags="uniE64D" d="M85.504 874.496v-852.992h853.024v852.992h-853.024zM904.384 840.384v-136.48h-784.768v136.48h784.768zM119.616 55.616v614.144h784.768v-614.144h-784.768zM307.264 789.184h528.864v-34.112h-528.864v34.112zM170.784 789.184h34.112v-34.112h-34.112v34.112zM239.040 789.184h34.112v-34.112h-34.112v34.112z" />
<glyph unicode="&#xe64e;" glyph-name="uniE64E" data-tags="uniE64E" d="M512 874.496c-235.552 0-426.496-190.944-426.496-426.496s190.976-426.496 426.496-426.496c235.552 0 426.496 190.944 426.496 426.496s-190.944 426.496-426.496 426.496zM512 55.616c-216.352 0-392.384 176.032-392.384 392.384s176 392.384 392.384 392.384c216.352 0 392.384-176.032 392.384-392.384s-176-392.384-392.384-392.384zM725.344 600.288l-273.888-265.568-95.936 95.936c-9.984 9.984-26.176 9.984-36.192 0s-9.984-26.176 0-36.192l113.76-113.76c4.992-4.992 11.552-7.488 18.080-7.488 6.4 0 12.832 2.4 17.792 7.2l291.968 283.136c10.144 9.856 10.4 26.048 0.576 36.192-9.888 10.176-26.048 10.4-36.192 0.576z" />
<glyph unicode="&#xe64f;" glyph-name="uniE64F" data-tags="uniE64F" d="M343.104 640.992l-24.128-24.128 168.896-168.896-168.096-168.096 24.128-24.128 168.096 168.096 168.096-168.096 24.128 24.128-168.096 168.096 168.896 168.896-24.128 24.128-168.896-168.896z" />
<glyph unicode="&#xe650;" glyph-name="uniE650" data-tags="uniE650" d="M210.432 749.568c-166.56-166.56-166.56-436.576 0-603.168s436.576-166.56 603.168 0c166.592 166.592 166.592 436.576 0 603.168s-436.576 166.56-603.168 0zM789.44 170.56c-152.992-152.992-401.92-152.992-554.912 0s-152.992 401.92 0 554.912c152.992 152.992 401.92 152.992 554.912 0s152.96-401.92 0-554.912zM343.104 640.992l-24.128-24.128 168.896-168.896-168.096-168.096 24.128-24.128 168.096 168.096 168.096-168.096 24.128 24.128-168.096 168.096 168.896 168.896-24.128 24.128-168.896-168.896z" />
<glyph unicode="&#xe651;" glyph-name="uniE651" data-tags="uniE651" d="M641.6 148.384l24.192-24.192-152.8-152.8-152.8 152.8 24.192 24.192 111.616-111.616v446.592h34.016v-446.592l111.616 111.616zM837.6 653.792c0 2.816 0.384 5.408 0.384 8 0 146.208-118.4 264.608-264.384 264.608-105.184 0-195.808-61.6-238.4-150.592-18.4 9.184-39.2 14.592-61.184 14.592-67.584 0-123.584-49.184-134.4-113.6-80.416-27.616-138.4-103.808-138.4-193.6 0-112.992 91.584-204.608 204.608-204.608h222.016v34.208h-222.016c-94.016 0-170.4 76.608-170.4 170.592 0 72.8 46.4 137.6 115.392 161.408l19.2 6.592 3.392 20c8.416 49.408 50.784 85.184 100.8 85.184 16 0 31.392-3.808 45.792-11.008l31.2-15.584 15.008 31.392c38.208 79.808 119.616 131.2 207.616 131.2 126.784-0.416 230.208-103.584 230.208-230.592 0-0.608 0-1.408-0.192-2.208-0.192-1.6-0.192-3.392-0.192-5.184l-0.8-34.816 34.784-0.192c84.384-0.192 153.216-69.184 153.216-153.6 0-84.192-68.608-152.992-152.8-153.408h-239.808v-34.208h239.808c103.2 0.608 186.784 84.384 186.784 187.616 0 103.616-83.808 187.616-187.2 187.808z" />
<glyph unicode="&#xe652;" glyph-name="uniE652" data-tags="uniE652" d="M384.8 443.008l-24.192 24.192 152.8 152.8 152.8-152.8-24.192-24.192-111.616 111.616v-446.592h-34.208v446.592l-111.392-111.616zM838.208 653.792c0 2.816 0.384 5.408 0.384 8 0 146.208-118.4 264.608-264.608 264.608-105.184 0-195.808-61.6-238.4-150.592-18.4 9.184-39.2 14.592-61.184 14.592-67.584 0-123.584-49.184-134.4-113.6-80.416-27.616-138.4-103.808-138.4-193.6 0-112.992 91.584-204.608 204.608-204.608h222.016v34.208h-222.016c-94.016 0-170.4 76.608-170.4 170.592 0 72.8 46.4 137.6 115.392 161.408l19.2 6.592 3.392 20c8.416 49.408 50.784 85.184 100.8 85.184 16 0 31.392-3.808 45.792-11.008l31.2-15.584 15.008 31.392c38.016 79.392 119.392 130.816 207.392 130.816 127.008 0 230.4-103.392 230.4-230.4 0-0.608 0-1.408-0.192-2.208-0.192-1.6-0.192-3.392-0.192-5.184l-0.8-34.816 34.784-0.192c84.384-0.192 153.184-69.184 153.184-153.6 0-84.192-68.608-152.992-152.8-153.408h-239.616v-34.208h239.808c103.2 0.608 186.784 84.384 186.784 187.616-0.192 103.808-83.808 187.808-187.2 188z" />
<glyph unicode="&#xe653;" glyph-name="uniE653" data-tags="uniE653" d="M572.608 737.76c127.008 0 230.304-103.296 230.304-230.304 0-0.704-0.096-1.44-0.128-2.144-0.096-1.696-0.224-3.392-0.256-5.12l-0.864-34.816 34.88-0.128c84.384-0.224 153.056-69.12 153.056-153.504 0-84.16-68.512-153.024-152.736-153.472l-7.456-0.032h-624.544c-93.984 0.096-170.464 76.608-170.464 170.56 0 72.8 46.336 137.6 115.296 161.28l19.2 6.56 3.392 20c8.352 49.344 50.752 85.152 100.768 85.152 15.936 0 31.36-3.712 45.792-10.976l31.104-15.616 15.008 31.392c38.144 79.712 119.648 131.2 207.616 131.2zM572.608 771.904c-105.216 0-195.84-61.6-238.4-150.56-18.4 9.28-39.136 14.592-61.152 14.592-67.552 0-123.488-49.152-134.4-113.6-80.448-27.584-138.368-103.68-138.368-193.536 0-112.992 91.584-204.576 204.544-204.672l632.192 0.032c103.2 0.544 186.688 84.288 186.688 187.584 0 103.456-83.68 187.328-187.072 187.616 0.064 2.72 0.384 5.376 0.384 8.096 0 146.048-118.4 264.416-264.416 264.416v0z" />
</font>
</defs>
</svg>
